TORRENTS45.XYZ

Скачать Остров / The Isle (2019) WEB-DLRip [MVO] [AD]


Остров / The Isle (2019) WEB-DLRip
Производство: Великобритания / Cleves Media, Fizz and Ginger Films
Жанр: Ужасы, фэнтези, триллер

Режиссер: Мэттью Батлер
Актеры: Конлет Хилл, Алекс Хэсселл, Тори Харт, Фисайо Акинаде, Аликс Вилтон Риган, Грэхэм Батлер, Эмма Кинг, Дикон Тиррелл, Джо Бэннистер, Бен Ли

Описание:
После загадочного крушения торгового корабля, трое выживших оказываются на небольшом туманном острове. Там они встречают четверых людей, которые ведут себя приветливо и обещают помочь им выбраться. Но на самом деле отшельники хранят страшную тайну, связанную с легендой о призрачной сирене.


Дата мировой премьеры: 9 февраля 2019

Продолжительность: 01:35:13
Качество видео: WEB-DLRip
Перевод: Многоголосый закадровый, профессиональный (Синема УС)
Субтитры: Отсутствуют
Реклама: Присутствуют вставки текстовой рекламы

Видео: XviD, 720x304, ~21624 Kbps
Аудио: AC-3, 2 ch, 384 Kbps

MediaInfo:


Общее
Полное имя : E:\NNM\Остров\The Isle 2019 WEB-DLRip.avi
Формат : AVI
Формат/Информация : Audio Video Interleave
Профиль формата : OpenDML
Размер файла : 1,34 Гбайт
Продолжительность : 1 ч. 35 м.
Общий поток : 2021 Кбит/сек

Видео
Идентификатор : 0
Формат : MPEG-4 Visual
Профиль формата : Advanced Simple@L5
Настройки формата : BVOP2 / Custom Matrix
Параметр BVOP формата : 2
Параметр QPel формата : Нет
Параметр GMC формата : Без точки перехода
Параметр матрицы формата : Выборочная
Идентификатор кодека : XVID
Идентификатор кодека/Подсказка : XviD
Продолжительность : 1 ч. 35 м.
Битрейт : 1624 Кбит/сек
Ширина : 720 пикселей
Высота : 304 пикселя
Соотношение сторон : 2,35:1
Частота кадров : 23,976 (24000/1001) кадра/сек
Цветовое пространство : YUV
Субдискретизация насыщенности : 4:2:0
Битовая глубина : 8 бит
Тип развёртки : Прогрессивная
Метод сжатия : С потерями
Бит/(Пиксели*Кадры) : 0.310
Размер потока : 1,08 Гбайт (80%)
Библиотека кодирования : XviD 1.2.1 (UTC 2008-12-04)

Аудио
Идентификатор : 1
Формат : AC-3
Формат/Информация : Audio Coding 3
Идентификатор кодека : 2000
Продолжительность : 1 ч. 35 м.
Вид битрейта : Постоянный
Битрейт : 384 Кбит/сек
Каналы : 2 канала
Расположение каналов : Front: L R
Частота : 48,0 КГц
Частота кадров : 31,250 кадров/сек (1536 SPF)
Битовая глубина : 16 бит
Метод сжатия : С потерями
Размер потока : 262 Мбайт (19%)
Выравнивание : Соединение по промежуткам
Продолжительность промежутка : 32 мс. (0,77 видеокадр)
ServiceKind/String : Complete Main
Скриншоты:


Все одноименные релизы в Клубе

Смотреть Online


Детали торрента:
Название:Остров / The Isle (2019) WEB-DLRip [MVO] [AD]
Дата добавления:11 Фев 2019 14:24:19
Размер:1,34 GB
Раздают:67
Качают:19
Форум:Новинки с Рекламой

All rights reserved © 2015-2019