TORRENTS45.XYZ

Скачать Остров / The Isle (2019) WEB-DLRip [H.264/720p-LQ] [MVO] [AD]


Остров / The Isle (2019) WEB-DLRip [H.264/720p-LQ]
Производство: Великобритания / Cleves Media, Fizz and Ginger Films
Жанр: Ужасы, фэнтези, триллер

Режиссер: Мэттью Батлер
Актеры: Конлет Хилл, Алекс Хэсселл, Тори Харт, Фисайо Акинаде, Аликс Вилтон Риган, Грэхэм Батлер, Эмма Кинг, Дикон Тиррелл, Джо Бэннистер, Бен Ли

Описание:
После загадочного крушения торгового корабля, трое выживших оказываются на небольшом туманном острове. Там они встречают четверых людей, которые ведут себя приветливо и обещают помочь им выбраться. Но на самом деле отшельники хранят страшную тайну, связанную с легендой о призрачной сирене.


Дата мировой премьеры: 9 февраля 2019

Продолжительность: 01:35:13
Качество видео: WEB-DLRip
Перевод: Многоголосый закадровый, профессиональный (Синема УС)
Субтитры: Отсутствуют
Реклама: Присутствуют вставки текстовой рекламы

Видео: AVC/H.264, 1280x536, ~5237 Kbps
Аудио: AC-3, 2 ch, 384 Kbps

MediaInfo:


Общее
Полное имя : E:\NNM\Остров\The Isle 2019 WEB-DLRip 720p-LQ.mkv
Формат : Matroska
Версия формата : Version 2
Размер файла : 3,81 Гбайт
Продолжительность : 1 ч. 35 м.
Режим общего битрейта : Переменный
Общий поток : 5735 Кбит/сек
Программа кодирования : libmatroska 1.4.1

Видео
Идентификатор : 1
Формат : AVC
Формат/Информация : Advanced Video Codec
Профиль формата : High@L4.1
Настройки формата : CABAC / 4 Ref Frames
Параметр CABAC формата : Да
Параметр RefFrames формата : 4 кадра
Идентификатор кодека : V_MPEG4/ISO/AVC
Продолжительность : 1 ч. 35 м.
Вид битрейта : Переменный
Битрейт : 5237 Кбит/сек
Максимальный битрейт : 6000 Кбит/сек
Ширина : 1280 пикселей
Высота : 536 пикселей
Соотношение сторон : 2,40:1
Режим частоты кадров : Постоянный
Частота кадров : 23,976 (24000/1001) кадра/сек
Стандарт вещания : Component
Цветовое пространство : YUV
Субдискретизация насыщенности : 4:2:0
Битовая глубина : 8 бит
Тип развёртки : Прогрессивная
Бит/(Пиксели*Кадры) : 0.318
Размер потока : 3,48 Гбайт (91%)
Default : Нет
Forced : Нет
Цветовой диапазон : Limited
Основные цвета : BT.709
Характеристики трансфера : BT.709
Коэффициенты матрицы : BT.709

Аудио
Идентификатор : 2
Формат : AC-3
Формат/Информация : Audio Coding 3
Идентификатор кодека : A_AC3
Продолжительность : 1 ч. 35 м.
Вид битрейта : Постоянный
Битрейт : 384 Кбит/сек
Каналы : 2 канала
Расположение каналов : Front: L R
Частота : 48,0 КГц
Частота кадров : 31,250 кадров/сек (1536 SPF)
Битовая глубина : 16 бит
Метод сжатия : С потерями
Размер потока : 262 Мбайт (7%)
ServiceKind/String : Complete Main
Default : Нет
Forced : Нет
Скриншоты:


Все одноименные релизы в Клубе

Смотреть Online


Детали торрента:
Название:Остров / The Isle (2019) WEB-DLRip [H.264/720p-LQ] [MVO] [AD]
Дата добавления:11 Фев 2019 14:23:55
Размер:3,81 GB
Раздают:197
Качают:11
Форум:Новинки с Рекламой

All rights reserved © 2015-2019