TORRENTS45.XYZ

Скачать Cass McCombs - Tip of the Sphere (2019) [FLAC|Lossless|tracks + .cue] <Indie Folk, Alternative Country>


Cass McCombs - Tip of the Sphere (2019)
Жанр: Indie Folk, Alternative Country
Издание: Anti / Epitaph - 87584-2
Продолжительность: 00:57:36

Кодек: FLAC
Битрейт: Lossless
Тип рипа: tracks + .cue

Треклист:
01. I Followed The River South To What (07:36)
02. The Great Pixley Train Robbery (04:00)
03. Estrella (04:36)
04. Absentee (02:48)
05. Real Life (05:15)
06. Sleeping Volcanoes (04:27)
07. Sidewalk Bop After Suicide (04:27)
08. Prayer For Another Day (04:53)
09. American Canyon Sutra (04:45)
10. Tying Up Loose Ends (04:34)
11. Rounder (10:09)

Дополнительная информация:

Отчёт EAC:


Exact Audio Copy V1.3 from 2. September 2016

EAC extraction logfile from 10. February 2019, 17:35

Cass McCombs / Tip of the Sphere

Used drive : Optiarc DVD RW AD-7190S Adapter: 1 ID: 2

Read mode : Secure
Utilize accurate stream : Yes
Defeat audio cache : Yes
Make use of C2 pointers : No

Read offset correction : 6
Overread into Lead-In and Lead-Out : No
Fill up missing offset samples with silence : Yes
Delete leading and trailing silent blocks : No
Null samples used in CRC calculations : Yes
Used interface : Native Win32 interface for Win NT & 2000
Gap handling : Appended to previous track

Used output format : User Defined Encoder
Selected bitrate : 1024 kBit/s
Quality : High
Add ID3 tag : No
Command line compressor : C:\Program Files (x86)\Exact Audio Copy\Flac\flac.exe
Additional command line options : -8 -V -T "ARTIST=%artist%" -T "TITLE=%title%" -T "ALBUM=%albumtitle%" -T "DATE=%year%" -T "TRACKNUMBER=%tracknr%" -T "GENRE=%genre%" -T "PERFORMER=%albuminterpret%" -T "COMPOSER=%composer%" %haslyrics%--tag-from-file=LYRICS="%lyricsfile%"%haslyrics% -T "ALBUMARTIST=%albumartist%" -T "DISCNUMBER=%cdnumber%" -T "TOTALDISCS=%totalcds%" -T "TOTALTRACKS=%numtracks%" -T "COMMENT=%comment%" %source% -o %dest%

TOC of the extracted CD

Track | Start | Length | Start sector | End sector
---------------------------------------------------------
1 | 0:00.00 | 7:36.39 | 0 | 34238
2 | 7:36.39 | 4:00.62 | 34239 | 52300
3 | 11:37.26 | 4:36.39 | 52301 | 73039
4 | 16:13.65 | 2:48.56 | 73040 | 85695
5 | 19:02.46 | 5:15.14 | 85696 | 109334
6 | 24:17.60 | 4:27.71 | 109335 | 129430
7 | 28:45.56 | 4:27.21 | 129431 | 149476
8 | 33:13.02 | 4:53.68 | 149477 | 171519
9 | 38:06.70 | 4:45.68 | 171520 | 192962
10 | 42:52.63 | 4:34.52 | 192963 | 213564
11 | 47:27.40 | 10:09.30 | 213565 | 259269

Track 1

Filename C:\New Rips\Cass McCombs - 2019 - Tip of the Sphere (87584-2)\01 I Followed The River South To What.wav

Pre-gap length 0:00:02.00

Peak level 97.0 %
Extraction speed 4.1 X
Track quality 99.9 %
Test CRC 89153339
Copy CRC 89153339
Track not present in AccurateRip database
Copy OK

Track 2

Filename C:\New Rips\Cass McCombs - 2019 - Tip of the Sphere (87584-2)\02 The Great Pixley Train Robbery.wav

Peak level 99.7 %
Extraction speed 4.9 X
Track quality 100.0 %
Test CRC DA3A566B
Copy CRC DA3A566B
Track not present in AccurateRip database
Copy OK

Track 3

Filename C:\New Rips\Cass McCombs - 2019 - Tip of the Sphere (87584-2)\03 Estrella.wav

Peak level 94.5 %
Extraction speed 1.0 X
Track quality 99.9 %
Test CRC 7D7F72C6
Copy CRC 7D7F72C6
Track not present in AccurateRip database
Copy OK

Track 4

Filename C:\New Rips\Cass McCombs - 2019 - Tip of the Sphere (87584-2)\04 Absentee.wav

Peak level 94.8 %
Extraction speed 1.1 X
Track quality 100.0 %
Test CRC 7BFD7292
Copy CRC 7BFD7292
Track not present in AccurateRip database
Copy OK

Track 5

Filename C:\New Rips\Cass McCombs - 2019 - Tip of the Sphere (87584-2)\05 Real Life.wav

Peak level 98.3 %
Extraction speed 1.2 X
Track quality 100.0 %
Test CRC C94055C4
Copy CRC C94055C4
Track not present in AccurateRip database
Copy OK

Track 6

Filename C:\New Rips\Cass McCombs - 2019 - Tip of the Sphere (87584-2)\06 Sleeping Volcanoes.wav

Peak level 95.4 %
Extraction speed 1.3 X
Track quality 100.0 %
Test CRC F45969BF
Copy CRC F45969BF
Track not present in AccurateRip database
Copy OK

Track 7

Filename C:\New Rips\Cass McCombs - 2019 - Tip of the Sphere (87584-2)\07 Sidewalk Bop After Suicide.wav

Peak level 94.7 %
Extraction speed 1.5 X
Track quality 100.0 %
Test CRC 469B694C
Copy CRC 469B694C
Track not present in AccurateRip database
Copy OK

Track 8

Filename C:\New Rips\Cass McCombs - 2019 - Tip of the Sphere (87584-2)\08 Prayer For Another Day.wav

Peak level 94.7 %
Extraction speed 1.6 X
Track quality 100.0 %
Test CRC B9258A9B
Copy CRC B9258A9B
Track not present in AccurateRip database
Copy OK

Track 9

Filename C:\New Rips\Cass McCombs - 2019 - Tip of the Sphere (87584-2)\09 American Canyon Sutra.wav

Peak level 98.3 %
Extraction speed 1.6 X
Track quality 100.0 %
Test CRC 12088152
Copy CRC 12088152
Track not present in AccurateRip database
Copy OK

Track 10

Filename C:\New Rips\Cass McCombs - 2019 - Tip of the Sphere (87584-2)\10 Tying Up Loose Ends.wav

Peak level 94.7 %
Extraction speed 1.7 X
Track quality 100.0 %
Test CRC 92C407D1
Copy CRC 92C407D1
Track not present in AccurateRip database
Copy OK

Track 11

Filename C:\New Rips\Cass McCombs - 2019 - Tip of the Sphere (87584-2)\11 Rounder.wav

Peak level 96.5 %
Extraction speed 2.0 X
Track quality 100.0 %
Test CRC 945236F6
Copy CRC 945236F6
Track not present in AccurateRip database
Copy OK

None of the tracks are present in the AccurateRip database

No errors occurred

End of status report

---- CUETools DB Plugin V2.1.6

[CTDB TOCID: pw.mKP6RZg7JjYRcLzpctbJknKo-] disk not present in database
Submit result: pw.mKP6RZg7JjYRcLzpctbJknKo- has been uploaded

==== Log checksum E22DF55EC904CB3E65969A82613D28593CEAA0E943595C3FDFF47A6B72689442 ====
YouTube

Детали торрента:
Название:Cass McCombs - Tip of the Sphere (2019) [FLAC|Lossless|tracks + .cue] <Indie Folk, Alternative Country>
Дата добавления:11 Фев 2019 14:22:23
Размер:344 MB
Раздают:3
Качают:0
Форум:Alternative, Punk (Lossless)

All rights reserved © 2015-2019