TORRENTS45.XYZ

Скачать Bonnie Tyler - Free Spirit (1995) [FLAC|Lossless|image + .cue] <Ballad, Classic Rock, Pop Rock>


Bonnie Tyler - Free Spirit (1995)
Автор рипа: samopal records
Жанр: Ballad, Classic Rock, Pop Rock
Издание: EastWest - 0630-12108-2, Russia
Продолжительность: 01:15:27
Dynamic Range Meter: DR8
Кодек: FLAC
Битрейт: Lossless
Тип рипа: image + .cue
Треклист:
01. Nothing To Do With Love
02. You're The One
03. Making Love (Out Of Nothing At All)
04. Given It All
05. What You Got
06. Bridge Over Troubled Water
07. Time Mends A Broken Heart
08. Driving Me Wild
09. Sexual Device
10. Make It Right Tonight
11. All Night To Know You
12. Forget Her
13. Two Out Of Three Ain't Bad
14. Sexual Device (The Vari Mix)

Covers:





Отчёт EAC:


Exact Audio Copy V1.0 beta 3 from 29. August 2011

Отчёт EAC об извлечении, выполненном 5. февраля 2019, 14:23

Bonnie Tyler / Free Spirit

Дисковод: SONY CD-RW CRX230ED Adapter: 2 ID: 1

Режим чтения : Достоверность
Использование точного потока : Да
Отключение кэша аудио : Да
Использование указателей C2 : Нет

Коррекция смещения при чтении : 6
Способность читать области Lead-in и Lead-out : Нет
Заполнение пропущенных сэмплов тишиной : Да
Удаление блоков с тишиной в начале и конце : Нет
При вычислениях CRC использовались нулевые сэмплы : Да
Интерфейс : Встроенный Win32-интерфейс для Win NT/2000

Выходной формат : Пользовательский кодировщик
Выбранный битрейт : 1024 kBit/s
Качество : Высокий
Добавление ID3-тега : Нет
Утилита сжатия : C:\Program Files\FLAC\flac.exe
Дополнительные параметры : -V -8 -T "Date=%year%" -T "Genre=%genre%" %source%

TOC извлечённого CD

Трек | Старт | Длительность | Начальный сектор | Конечный сектор
---------------------------------------------------------------------
1 | 0:00.00 | 4:54.47 | 0 | 22096
2 | 4:54.47 | 3:58.50 | 22097 | 39996
3 | 8:53.22 | 7:49.65 | 39997 | 75236
4 | 16:43.12 | 5:44.13 | 75237 | 101049
5 | 22:27.25 | 5:32.35 | 101050 | 125984
6 | 27:59.60 | 5:03.30 | 125985 | 148739
7 | 33:03.15 | 3:30.12 | 148740 | 164501
8 | 36:33.27 | 5:20.30 | 164502 | 188531
9 | 41:53.57 | 4:11.58 | 188532 | 207414
10 | 46:05.40 | 5:43.37 | 207415 | 233176
11 | 51:49.02 | 5:40.53 | 233177 | 258729
12 | 57:29.55 | 4:13.45 | 258730 | 277749
13 | 61:43.25 | 8:43.40 | 277750 | 317014
14 | 70:26.65 | 5:00.32 | 317015 | 339546

Характеристики диапазона извлечения и сообщения об ошибках

Выбранный диапазон

Имя файла F:\Bonnie Tyler - Free Spirit [CD] - 1996 (lossless)\Bonnie Tyler - Free Spirit.wav

Пиковый уровень 97.7 %
Скорость извлечения 4.8 X
Качество диапазона 100.0 %
CRC теста 3481D0DB
CRC копии 3481D0DB
Копирование... OK

Ошибок не произошло

AccurateRip: сводка

Трек 1 : извлечено точно (доверие 3) [F01CF539] (AR v1)
Трек 2 : извлечено точно (доверие 3) [7B335353] (AR v1)
Трек 3 : извлечено точно (доверие 3) [0F540574] (AR v1)
Трек 4 : извлечено точно (доверие 3) [61420462] (AR v1)
Трек 5 : извлечено точно (доверие 3) [9C968720] (AR v1)
Трек 6 : извлечено точно (доверие 3) [2CD8B82A] (AR v1)
Трек 7 : извлечено точно (доверие 3) [0E04143A] (AR v1)
Трек 8 : извлечено точно (доверие 3) [5B0E0832] (AR v1)
Трек 9 : извлечено точно (доверие 3) [E9A8E3DB] (AR v1)
Трек 10 : извлечено точно (доверие 3) [3E341E38] (AR v1)
Трек 11 : извлечено точно (доверие 3) [5B1CBEBF] (AR v1)
Трек 12 : извлечено точно (доверие 3) [96AC11A9] (AR v1)
Трек 13 : извлечено точно (доверие 3) [53DAD887] (AR v1)
Трек 14 : извлечено точно (доверие 3) [2F3BC694] (AR v1)

Все треки извлечены точно

Конец отчёта

==== Контрольная сумма отчёта 92F17B45E250A540FFA189DAC0387C42DB414285D261A1B25845D87CB1E51291 ====


Детали торрента:
Название:Bonnie Tyler - Free Spirit (1995) [FLAC|Lossless|image + .cue] <Ballad, Classic Rock, Pop Rock>
Дата добавления:11 Фев 2019 14:17:17
Размер:528 MB
Раздают:12
Качают:0
Форум:Rock (Lossless)

All rights reserved © 2015-2019