TORRENTS45.XYZ

Скачать Первые люди на Луне / First Men in the Moon (1964) DVDRip [H.264]


Первые люди на Луне / First Men in the Moon (1964) DVDRip [H.264]
Производство: Великобритания / Ameran Films Ltd.
Жанр: Фантастика, Приключения

Режиссер: Нэйтан Юран
Продюсер: Чарльз Х. Шнеер, Рэй Харрихаузен
Актеры: Эдвард Джадд, Марта Хайер, Лайонел Джеффрис, Майлз Маллесон, Норман Бёрд, Глэдис Хенсон, Хью МакДермотт, Бетти МакДауэлл, Пол Карпентер, Эрик Читти

Описание:
Фантастический фильм по роману Герберта Уэллса, снятый еще до первого полета человека на Луну. Космический корабль с астронавтами на борту приземляется на Луне. Земляне считают, что они стали первооткрывателями. Но каково же их удивление, когда они видят на поверхности планеты старый английский флаг и документ, гласящий, что планета принадлежит королеве Виктории.


Возраст: 0+ (для любой зрительской аудитории)

Релиз от: Охрана (Torrents45.xyz)
Продолжительность: 01:43:04
Качество видео: DVDRip
Перевод: Многоголосый закадровый (Петербург 5-й канал)
Субтитры: Английские

Видео: AVC/H.264, 720x304, ~1975 Kbps
Аудио 1: AC3, 2 ch, 192 Kbps, 48.0 kHz – Русский
Аудио 2: AC3, 2 ch, 192 Kbps, 48.0 kHz – Английский

Mediainfo:


Общее
Уникальный идентификатор : 211929553694953376863531059058225903538 (0x9F7025B922594DCC83C7C3DE266AF7B2)
Полное имя : B:\Downloads\Первые люди на луне. 1964. torrents45.xyzv
Формат : Matroska
Версия формата : Version 4 / Version 2
Размер файла : 1,70 Гбайт
Продолжительность : 1 ч. 43 м.
Общий поток : 2361 Кбит/сек
Дата кодирования : UTC 2019-02-11 10:02:26
Программа кодирования : mkvmerge v7.9.0 ('Birds') 64bit
Библиотека кодирования : libebml v1.3.1 + libmatroska v1.4.2

Видео
Идентификатор : 1
Формат : AVC
Формат/Информация : Advanced Video Codec
Профиль формата : High@L4.1
Настройки формата : CABAC / 12 Ref Frames
Параметр CABAC формата : Да
Параметр RefFrames формата : 12 кадров
Идентификатор кодека : V_MPEG4/ISO/AVC
Продолжительность : 1 ч. 43 м.
Битрейт : 1975 Кбит/сек
Ширина : 720 пикселей
Высота : 304 пикселя
Соотношение сторон : 2,35:1
Режим частоты кадров : Постоянный
Частота кадров : 23,976 (24000/1001) кадра/сек
Цветовое пространство : YUV
Субдискретизация насыщенности : 4:2:0
Битовая глубина : 8 бит
Тип развёртки : Прогрессивная
Бит/(Пиксели*Кадры) : 0.376
Размер потока : 1,42 Гбайт (84%)
Заголовок : First Men In The Moon
Библиотека кодирования : x264 core 146 r2538 121396c
Настройки программы : cabac=1 / ref=12 / deblock=1:-1:-1 / analyse=0x3:0x113 / me=umh / subme=10 / psy=1 / psy_rd=1.00:0.10 / mixed_ref=1 / me_range=32 / chroma_me=1 / trellis=2 / 8x8dct=1 / cqm=0 / deadzone=21,11 / fast_pskip=0 / chroma_qp_offset=-3 / threads=6 / lookahead_threads=1 / sliced_threads=0 / nr=0 / decimate=0 / interlaced=0 / bluray_compat=0 / constrained_intra=0 / bframes=7 / b_pyramid=2 / b_adapt=2 / b_bias=0 / direct=3 / weightb=1 / open_gop=0 / weightp=2 / keyint=250 / keyint_min=25 / scenecut=40 / intra_refresh=0 / rc_lookahead=60 / rc=2pass / mbtree=1 / bitrate=1975 / ratetol=1.0 / qcomp=0.60 / qpmin=0 / qpmax=69 / qpstep=4 / cplxblur=20.0 / qblur=0.5 / vbv_maxrate=14000 / vbv_bufsize=14000 / nal_hrd=none / filler=0 / ip_ratio=1.40 / aq=1:1.00
Язык : English
Default : Да
Forced : Нет

Аудио #1
Идентификатор : 2
Формат : AC-3
Формат/Информация : Audio Coding 3
Идентификатор кодека : A_AC3
Продолжительность : 1 ч. 43 м.
Вид битрейта : Постоянный
Битрейт : 192 Кбит/сек
Каналы : 2 канала
Расположение каналов : Front: L R
Частота : 48,0 КГц
Частота кадров : 31,250 кадров/сек (1536 SPF)
Битовая глубина : 16 бит
Метод сжатия : С потерями
Размер потока : 142 Мбайт (8%)
Заголовок : Многоголосый закадровый, Петербург 5 канал
Язык : Russian
ServiceKind/String : Complete Main
Default : Да
Forced : Нет

Аудио #2
Идентификатор : 3
Формат : AC-3
Формат/Информация : Audio Coding 3
Идентификатор кодека : A_AC3
Продолжительность : 1 ч. 43 м.
Вид битрейта : Постоянный
Битрейт : 192 Кбит/сек
Каналы : 2 канала
Расположение каналов : Front: L R
Частота : 48,0 КГц
Частота кадров : 31,250 кадров/сек (1536 SPF)
Битовая глубина : 16 бит
Метод сжатия : С потерями
Размер потока : 142 Мбайт (8%)
Заголовок : Оригинал
Язык : English
ServiceKind/String : Complete Main
Default : Нет
Forced : Нет

Текст
Идентификатор : 4
Формат : UTF-8
Идентификатор кодека : S_TEXT/UTF8
Идентификатор кодека/Информация : UTF-8 Plain Text
Продолжительность : 1 ч. 38 м.
Битрейт : 45 бит/сек
ElementCount : 910
Размер потока : 32,6 Кбайт (0%)
Заголовок : SRT
Язык : English
Default : Нет
Forced : Нет
Скриншоты:

Дополнительные скриншоты:



Все одноименные релизы в Клубе

Детали торрента:
Название:Первые люди на Луне / First Men in the Moon (1964) DVDRip [H.264]
Дата добавления:11 Фев 2019 13:51:48
Размер:1,7 GB
Раздают:15
Качают:4
Форум:Зарубежная Классика (HD*Rip/LQ, DVDRip, SATRip, VHSRip)

All rights reserved © 2015-2019