TORRENTS45.XYZ

Скачать Brian Tarquin - Soft Touch (1999) Instinct Records [FLAC|Lossless|tracks + .cue] <Smooth Jazz, Guitar Jazz>


Brian Tarquin - Soft Touch (1999) Instinct Records
Жанр: Smooth Jazz, Guitar Jazz
Издание: Instinct Records - INS416-2
Продолжительность: 00:45:06

Кодек: FLAC (tracks+.cue)
Битрейт: Lossless
Источник (релизер): fiks22
Страна-производитель диска: USA
Наличие сканов в содержимом раздачи: нет

Треклист:

01. Darlin Darlin Baby [3:27]
02. Sedona [3:37]
03. Rainfall [4:47]
04. Tangled Web [4:03]
05. Jive Town [4:19]
06. Catalina Breeze [3:51]
07. You Know What I Mean [5:01]
08. Read My Mind [4:19]
09. Baby Come Back [3:32]
10. English Rose [4:14]
11. Tabatha [3:56]

Отчёт EAC:


Exact Audio Copy V1.0 beta 1 from 15. November 2010

EAC extraction logfile from 28. April 2011, 12:52

Brian Tarquin / Soft Touch

Used drive : Optiarc DVD RW AD-7240S Adapter: 0 ID: 2

Read mode : Secure
Utilize accurate stream : Yes
Defeat audio cache : Yes
Make use of C2 pointers : No

Read offset correction : 48
Overread into Lead-In and Lead-Out : No
Fill up missing offset samples with silence : Yes
Delete leading and trailing silent blocks : No
Null samples used in CRC calculations : Yes
Used interface : Native Win32 interface for Win NT & 2000
Gap handling : Appended to previous track

Used output format : User Defined Encoder
Selected bitrate : 896 kBit/s
Quality : High
Add ID3 tag : No
Command line compressor : C:\Program Files (x86)\Exact Audio Copy\Flac\flac.exe
Additional command line options : -V -8 -T "artist=%a" -T "title=%t" -T "album=%g" -T "date=%y" -T "tracknumber=%n" -T "genre=%m" %s

TOC of the extracted CD

Track | Start | Length | Start sector | End sector
---------------------------------------------------------
1 | 0:00.00 | 3:27.05 | 0 | 15529
2 | 3:27.05 | 3:37.25 | 15530 | 31829
3 | 7:04.30 | 4:46.62 | 31830 | 53341
4 | 11:51.17 | 4:02.50 | 53342 | 71541
5 | 15:53.67 | 4:18.70 | 71542 | 90961
6 | 20:12.62 | 3:51.33 | 90962 | 108319
7 | 24:04.20 | 5:01.05 | 108320 | 130899
8 | 29:05.25 | 4:19.32 | 130900 | 150356
9 | 33:24.57 | 3:31.55 | 150357 | 166236
10 | 36:56.37 | 4:13.73 | 166237 | 185284
11 | 41:10.35 | 3:55.60 | 185285 | 202969

Track 1

Filename D:\Rips\Brian Tarquin - 1999 - Soft Touch (FLAC)\01 - Darlin Darlin Baby.wav

Pre-gap length 0:00:02.00

Peak level 99.6 %
Extraction speed 2.2 X
Track quality 100.0 %
Test CRC D407A178
Copy CRC D407A178
Track not present in AccurateRip database
Copy OK

Track 2

Filename D:\Rips\Brian Tarquin - 1999 - Soft Touch (FLAC)\02 - Sedona.wav

Pre-gap length 0:00:02.90

Peak level 99.6 %
Extraction speed 2.5 X
Track quality 100.0 %
Test CRC 21412BBB
Copy CRC 21412BBB
Track not present in AccurateRip database
Copy OK

Track 3

Filename D:\Rips\Brian Tarquin - 1999 - Soft Touch (FLAC)\03 - Rainfall.wav

Pre-gap length 0:00:02.90

Peak level 99.6 %
Extraction speed 2.8 X
Track quality 100.0 %
Test CRC 48368838
Copy CRC 48368838
Track not present in AccurateRip database
Copy OK

Track 4

Filename D:\Rips\Brian Tarquin - 1999 - Soft Touch (FLAC)\04 - Tangled Web.wav

Pre-gap length 0:00:02.89

Peak level 99.6 %
Extraction speed 3.0 X
Track quality 100.0 %
Test CRC BE2A7C95
Copy CRC BE2A7C95
Track not present in AccurateRip database
Copy OK

Track 5

Filename D:\Rips\Brian Tarquin - 1999 - Soft Touch (FLAC)\05 - Jive Town.wav

Pre-gap length 0:00:02.89

Peak level 99.6 %
Extraction speed 3.2 X
Track quality 100.0 %
Test CRC 7DCB2941
Copy CRC 7DCB2941
Track not present in AccurateRip database
Copy OK

Track 6

Filename D:\Rips\Brian Tarquin - 1999 - Soft Touch (FLAC)\06 - Catalina Breeze.wav

Pre-gap length 0:00:02.89

Peak level 99.6 %
Extraction speed 2.9 X
Track quality 99.9 %
Test CRC 30148C5D
Copy CRC 30148C5D
Track not present in AccurateRip database
Copy OK

Track 7

Filename D:\Rips\Brian Tarquin - 1999 - Soft Touch (FLAC)\07 - You Know What I Mean.wav

Pre-gap length 0:00:02.93

Peak level 99.6 %
Extraction speed 3.7 X
Track quality 100.0 %
Test CRC A9669814
Copy CRC A9669814
Track not present in AccurateRip database
Copy OK

Track 8

Filename D:\Rips\Brian Tarquin - 1999 - Soft Touch (FLAC)\08 - Read My Mind.wav

Pre-gap length 0:00:02.90

Peak level 99.6 %
Extraction speed 3.8 X
Track quality 100.0 %
Test CRC 736FAC7B
Copy CRC 736FAC7B
Track not present in AccurateRip database
Copy OK

Track 9

Filename D:\Rips\Brian Tarquin - 1999 - Soft Touch (FLAC)\09 - Baby Come Back.wav

Pre-gap length 0:00:02.89

Peak level 99.6 %
Extraction speed 3.8 X
Track quality 100.0 %
Test CRC 355E09A1
Copy CRC 355E09A1
Track not present in AccurateRip database
Copy OK

Track 10

Filename D:\Rips\Brian Tarquin - 1999 - Soft Touch (FLAC)\10 - English Rose.wav

Pre-gap length 0:00:02.89

Peak level 99.6 %
Extraction speed 4.1 X
Track quality 100.0 %
Test CRC 82CE2B55
Copy CRC 82CE2B55
Track not present in AccurateRip database
Copy OK

Track 11

Filename D:\Rips\Brian Tarquin - 1999 - Soft Touch (FLAC)\11 - Tabatha.wav

Pre-gap length 0:00:02.90

Peak level 99.6 %
Extraction speed 3.7 X
Track quality 99.9 %
Test CRC B7A77D57
Copy CRC B7A77D57
Track not present in AccurateRip database
Copy OK

None of the tracks are present in the AccurateRip database

No errors occurred

End of status report

==== Log checksum CEEA3E44139775CCA260623F0E098C48900E0225CE58C349153F7FBEB697CB28 ====

Детали торрента:
Название:Brian Tarquin - Soft Touch (1999) Instinct Records [FLAC|Lossless|tracks + .cue] <Smooth Jazz, Guitar Jazz>
Дата добавления:11 Фев 2019 13:05:51
Размер:281 MB
Раздают:11
Качают:0
Форум:Jazz (Lossless)

All rights reserved © 2015-2019