TORRENTS45.XYZ

Скачать Зомби 3 / Пожиратели плоти 2 / Zombi 3 / Zombie Flesh Eaters 2 (1988) BDRip [H.264/1080p] [Unrated Cut]


Зомби 3 / Пожиратели плоти 2 / Zombi 3 / Zombie Flesh Eaters 2 (1988) BDRip
Производство: Италия, Flora Film S.r.l.
Жанр: Ужасы

Режиссер: Лучио Фульчи, Клаудио Фрагассо, Бруно Маттеи
Актеры: Деран Сарафян, Беатрис Ринг, Оттавиано Делль’Аква, Массимо Ванни, Дебора Бергамини, Лучиано Пигоцци, Мишель Монти

Описание:
В одной из стран Юго-Восточной Азии в секретной лаборатории происходит попытка украсть некую вакцину, побочное действие которой в том, что люди становятся зомби. Похищение срывается, а один из похитителей становится зомби. Когда же его труп сжигают происходит заражение близлежащей территории.


Возраст: 18+ (зрителям, достигшим 18 лет. запрещено для детей)
Рейтинг MPAA: R (лицам до 17 лет обязательно присутствие взрослого)

Релиз от: Невьянск

Продолжительность: 01:34:50
Качество видео: BDRip
Перевод: Авторский
Субтитры: русские, английские

Видео: AVC/H.264, 1920x1080, ~12.4 Mbps
Аудио #1: AC3, 2 ch, 192 Kbps - Русский, Авторский (Гаврилов)
Аудио #2: AC3, 2 ch, 192 Kbps - Русский, Авторский (Визгунов)
Аудио #3: AC3, 2 ch, 192 Kbps - Русский, Авторский (Штейн)
Аудио #4: DTS, 2 ch, 1509 Kbps - Английский

Mediainfo:


General
Unique ID : 154132906560013168162305562379573379760 (0x73F4EB0317AA45259366C802B679C2B0)
Complete name : C:\Users\ushen\Desktop\Zombi 3 (1988) BDRip 1080p.mkv
Format : Matroska
Format version : Version 4
File size : 9.60 GiB
Duration : 1 h 34 min
Overall bit rate : 14.5 Mb/s
Encoded date : UTC 2018-10-21 07:16:59
Writing application : mkvmerge v27.0.0 ('Metropolis') 64-bit
Writing library : libebml v1.3.6 + libmatroska v1.4.9

Video
ID : 1
Format : AVC
Format/Info : Advanced Video Codec
Format profile : High@L4.1
Format settings : CABAC / 4 Ref Frames
Format settings, CABAC : Yes
Format settings, ReFrames : 4 frames
Codec ID : V_MPEG4/ISO/AVC
Duration : 1 h 34 min
Bit rate : 12.4 Mb/s
Width : 1 920 pixels
Height : 1 080 pixels
Display aspect ratio : 16:9
Frame rate mode : Constant
Frame rate : 24.000 FPS
Color space : YUV
Chroma subsampling : 4:2:0
Bit depth : 8 bits
Scan type : Progressive
Bits/(Pixel*Frame) : 0.249
Stream size : 8.21 GiB (86%)
Writing library : x264 core 146 r2538 121396c
Encoding settings : cabac=1 / ref=4 / deblock=1:-3:-3 / analyse=0x3:0x113 / me=umh / subme=11 / psy=1 / psy_rd=1.00:0.00 / mixed_ref=1 / me_range=48 / chroma_me=1 / trellis=2 / 8x8dct=1 / cqm=0 / deadzone=21,11 / fast_pskip=0 / chroma_qp_offset=-2 / threads=12 / lookahead_threads=3 / sliced_threads=0 / nr=0 / decimate=0 / interlaced=0 / bluray_compat=0 / constrained_intra=0 / bframes=12 / b_pyramid=2 / b_adapt=2 / b_bias=0 / direct=3 / weightb=1 / open_gop=1 / weightp=2 / keyint=250 / keyint_min=23 / scenecut=40 / intra_refresh=0 / rc_lookahead=60 / rc=2pass / mbtree=0 / bitrate=12400 / ratetol=1.0 / qcomp=0.60 / qpmin=0 / qpmax=69 / qpstep=4 / cplxblur=20.0 / qblur=0.5 / vbv_maxrate=50000 / vbv_bufsize=62500 / nal_hrd=none / filler=0 / ip_ratio=1.40 / pb_ratio=1.30 / aq=1:1.10
Language : English
Default : Yes
Forced : No

Audio #1
ID : 2
Format : AC-3
Format/Info : Audio Coding 3
Commercial name : Dolby Digital
Codec ID : A_AC3
Duration : 1 h 34 min
Bit rate mode : Constant
Bit rate : 192 kb/s
Channel(s) : 2 channels
Channel layout : L R
Sampling rate : 48.0 kHz
Frame rate : 31.250 FPS (1536 SPF)
Bit depth : 16 bits
Compression mode : Lossy
Stream size : 130 MiB (1%)
Title : Гаврилов
Language : Russian
Service kind : Complete Main
Default : Yes
Forced : No

Audio #2
ID : 3
Format : AC-3
Format/Info : Audio Coding 3
Commercial name : Dolby Digital
Codec ID : A_AC3
Duration : 1 h 34 min
Bit rate mode : Constant
Bit rate : 192 kb/s
Channel(s) : 2 channels
Channel layout : L R
Sampling rate : 48.0 kHz
Frame rate : 31.250 FPS (1536 SPF)
Bit depth : 16 bits
Compression mode : Lossy
Stream size : 130 MiB (1%)
Title : Визгунов
Language : Russian
Service kind : Complete Main
Default : No
Forced : No

Audio #3
ID : 4
Format : AC-3
Format/Info : Audio Coding 3
Commercial name : Dolby Digital
Codec ID : A_AC3
Duration : 1 h 34 min
Bit rate mode : Constant
Bit rate : 192 kb/s
Channel(s) : 2 channels
Channel layout : L R
Sampling rate : 48.0 kHz
Frame rate : 31.250 FPS (1536 SPF)
Bit depth : 16 bits
Compression mode : Lossy
Stream size : 130 MiB (1%)
Title : Штейн
Language : Russian
Service kind : Complete Main
Default : No
Forced : No

Audio #4
ID : 5
Format : DTS
Format/Info : Digital Theater Systems
Codec ID : A_DTS
Duration : 1 h 34 min
Bit rate mode : Constant
Bit rate : 1 509 kb/s
Channel(s) : 2 channels
Channel layout : L R
Sampling rate : 48.0 kHz
Frame rate : 93.750 FPS (512 SPF)
Bit depth : 16 bits
Compression mode : Lossy
Stream size : 1 024 MiB (10%)
Title : Original
Language : English
Default : No
Forced : No

Text #1
ID : 6
Format : UTF-8
Codec ID : S_TEXT/UTF8
Codec ID/Info : UTF-8 Plain Text
Duration : 1 h 0 min
Bit rate : 6 b/s
Count of elements : 70
Stream size : 2.83 KiB (0%)
Language : Russian
Default : No
Forced : No

Text #2
ID : 7
Format : UTF-8
Codec ID : S_TEXT/UTF8
Codec ID/Info : UTF-8 Plain Text
Duration : 1 h 34 min
Bit rate : 43 b/s
Count of elements : 1374
Stream size : 30.4 KiB (0%)
Language : English
Default : No
Forced : No

Дополнительная информация:

Это рип с Uncut версии фильма. Перевод Гаврилова полный. К дорожкам Визгунова и Штейна на непереведенные диалоги добавлены форсированные субтитры. Тайминг непереведенных моментов - 0:00 - 3:39; 7:33 - 9:10; 10:10 - 11:00; 48:32 - 49:38; 1:00:33 - 1:00:58. Голос Штейна наложен на немецкий дубляж.
Скриншоты:


Все одноименные релизы в Клубе

Детали торрента:
Название:Зомби 3 / Пожиратели плоти 2 / Zombi 3 / Zombie Flesh Eaters 2 (1988) BDRip [H.264/1080p] [Unrated Cut]
Дата добавления:11 Фев 2019 09:39:39
Размер:9,6 GB
Раздают:5
Качают:1
Форум:Старые Зарубежные Фильмы (HD, UHD, UHD-LQ, 3D)

All rights reserved © 2015-2019