TORRENTS45.XYZ

Скачать AC / DC - The Best (1997) Unofficial Release [FLAC|Lossless|image + .cue] <Hard Rock, Heavy Metal>


AC / DC - The Best (1997) Unofficial Release
Автор рипа: samopal records
Жанр: Hard Rock, Heavy Metal
Издание: Not On Label - none, Bulgaria
Продолжительность: 01:12:22
Dynamic Range Meter: DR10
Кодек: FLAC
Битрейт: Lossless
Тип рипа: image + .cue
Треклист:
01. The Jack
02. Highway To Hell
03. Touch Too Much
04. Back In Black
05. You Shook Me All Night Long
06. Jailbreak
07. Hells Bells
08. T.N.T.
09. Are You Ready
10. Big Gun
11. Kicked On The Teeth
12. Ride On
13. Whisky On The Rocks
14. Beating Around The Bush
15. Whole Lotta Rosie
16. Thunderstruck

Covers:





Отчёт EAC:


Exact Audio Copy V1.0 beta 3 from 29. August 2011

Отчёт EAC об извлечении, выполненном 6. февраля 2019, 14:58

AC/DC / The Best

Дисковод: SONY CD-RW CRX230ED Adapter: 2 ID: 1

Режим чтения : Достоверность
Использование точного потока : Да
Отключение кэша аудио : Да
Использование указателей C2 : Нет

Коррекция смещения при чтении : 6
Способность читать области Lead-in и Lead-out : Нет
Заполнение пропущенных сэмплов тишиной : Да
Удаление блоков с тишиной в начале и конце : Нет
При вычислениях CRC использовались нулевые сэмплы : Да
Интерфейс : Встроенный Win32-интерфейс для Win NT/2000

Выходной формат : Пользовательский кодировщик
Выбранный битрейт : 1024 kBit/s
Качество : Высокий
Добавление ID3-тега : Нет
Утилита сжатия : C:\Program Files\FLAC\flac.exe
Дополнительные параметры : -V -8 -T "Date=%year%" -T "Genre=%genre%" %source%

TOC извлечённого CD

Трек | Старт | Длительность | Начальный сектор | Конечный сектор
---------------------------------------------------------------------
1 | 0:00.00 | 5:49.26 | 0 | 26200
2 | 5:49.26 | 3:29.64 | 26201 | 41939
3 | 9:19.15 | 4:28.25 | 41940 | 62064
4 | 13:47.40 | 4:17.20 | 62065 | 81359
5 | 18:04.60 | 3:31.67 | 81360 | 97251
6 | 21:36.52 | 4:40.20 | 97252 | 118271
7 | 26:16.72 | 5:13.32 | 118272 | 141778
8 | 31:30.29 | 3:33.54 | 141779 | 157807
9 | 35:04.08 | 4:11.07 | 157808 | 176639
10 | 39:15.15 | 4:24.18 | 176640 | 196457
11 | 43:39.33 | 3:57.57 | 196458 | 214289
12 | 47:37.15 | 5:53.05 | 214290 | 240769
13 | 53:30.20 | 4:37.63 | 240770 | 261607
14 | 58:08.08 | 3:59.35 | 261608 | 279567
15 | 62:07.43 | 5:21.46 | 279568 | 303688
16 | 67:29.14 | 4:52.43 | 303689 | 325631

Характеристики диапазона извлечения и сообщения об ошибках

Выбранный диапазон

Имя файла F:\ACDC - The Best [CD] - uy (lossless)\ACDC - The Best.wav

Пиковый уровень 99.8 %
Скорость извлечения 2.4 X
Качество диапазона 100.0 %
CRC теста 9B139BC7
CRC копии 9B139BC7
Копирование... OK

Ошибок не произошло

AccurateRip: сводка

Трек 1 отсутствует в базе данных
Трек 2 отсутствует в базе данных
Трек 3 отсутствует в базе данных
Трек 4 отсутствует в базе данных
Трек 5 отсутствует в базе данных
Трек 6 отсутствует в базе данных
Трек 7 отсутствует в базе данных
Трек 8 отсутствует в базе данных
Трек 9 отсутствует в базе данных
Трек 10 отсутствует в базе данных
Трек 11 отсутствует в базе данных
Трек 12 отсутствует в базе данных
Трек 13 отсутствует в базе данных
Трек 14 отсутствует в базе данных
Трек 15 отсутствует в базе данных
Трек 16 отсутствует в базе данных

Ни одного трека нет в базе AccurateRip

Конец отчёта

==== Контрольная сумма отчёта 3D4F492EF13E23B39D7DD28604388BDDA13C944CC168B2A4262CD6AE314844ED ====


Детали торрента:
Название:AC / DC - The Best (1997) Unofficial Release [FLAC|Lossless|image + .cue] <Hard Rock, Heavy Metal>
Дата добавления:10 Фев 2019 16:44:01
Размер:492 MB
Раздают:20
Качают:0
Форум:Hard Rock (Lossless)

All rights reserved © 2015-2019