TORRENTS45.XYZ

Скачать VA - Italian Golden Ballads (2000) Unofficial Release [FLAC|Lossless|image + .cue] <Italo Pop>


VA - Italian Golden Ballads (2000)
Жанр: Italo Pop
Издание: Not On Label - none
Продолжительность: 01:10:22
Кодек: FLAC
Битрейт: Lossless
Тип рипа: image + .cue
Треклист:
01. Al Bano & Romina Power - Liberta
02. Collage - Donna Musica
03. Pupo - La Notte
04. Ricchi e Poveri - Comme Vorrel
05. Matia Bazar - Tu Semplicita
06. Adriano Celentano - Il Tempo Se Ne Va
07. Riccardo Fogli - Storie Di Tutti I Gori
08. Ricci E Poveri - Piccolo Amore
09. Toto Cutugno - L'Italiano
10. Eros Ramazzotti - Cose Della Uita
11. Pupo - Su Di Noi
12. Toto Cutugno - Soli
13. Al Bano & Romina Power - Angeli
14. Matia Bazar - Vacanze Romane
15. I Santo Cali Fornia - Tornero
16. Pooh - Che Vuoi Che Sia
17. Zucchero - Senza Una Donna
18. Umberto Tozzi - Ti Amo

Отчёт EAC:


Exact Audio Copy V1.0 beta 3 from 29. August 2011

Отчёт EAC об извлечении, выполненном 3. февраля 2019, 18:11

Various Artists / Italian Golden Ballads

Дисковод: SONY CD-RW CRX230ED Adapter: 2 ID: 1

Режим чтения : Достоверность
Использование точного потока : Да
Отключение кэша аудио : Да
Использование указателей C2 : Нет

Коррекция смещения при чтении : 6
Способность читать области Lead-in и Lead-out : Нет
Заполнение пропущенных сэмплов тишиной : Да
Удаление блоков с тишиной в начале и конце : Нет
При вычислениях CRC использовались нулевые сэмплы : Да
Интерфейс : Встроенный Win32-интерфейс для Win NT/2000

Выходной формат : Пользовательский кодировщик
Выбранный битрейт : 1024 kBit/s
Качество : Высокий
Добавление ID3-тега : Нет
Утилита сжатия : C:\Program Files\FLAC\flac.exe
Дополнительные параметры : -V -8 -T "Date=%year%" -T "Genre=%genre%" %source%

TOC извлечённого CD

Трек | Старт | Длительность | Начальный сектор | Конечный сектор
---------------------------------------------------------------------
1 | 0:00.00 | 4:29.67 | 0 | 20241
2 | 4:29.67 | 3:19.40 | 20242 | 35206
3 | 7:49.32 | 3:30.01 | 35207 | 50957
4 | 11:19.33 | 2:59.18 | 50958 | 64400
5 | 14:18.51 | 4:17.37 | 64401 | 83712
6 | 18:36.13 | 3:49.56 | 83713 | 100943
7 | 22:25.69 | 4:27.25 | 100944 | 120993
8 | 26:53.19 | 3:22.62 | 120994 | 136205
9 | 30:16.06 | 4:00.39 | 136206 | 154244
10 | 34:16.45 | 4:28.59 | 154245 | 174403
11 | 38:45.29 | 3:30.74 | 174404 | 190227
12 | 42:16.28 | 4:02.73 | 190228 | 208450
13 | 46:19.26 | 3:32.71 | 208451 | 224421
14 | 49:52.22 | 4:13.44 | 224422 | 243440
15 | 54:05.66 | 3:30.10 | 243441 | 259200
16 | 57:36.01 | 4:48.11 | 259201 | 280811
17 | 62:24.12 | 4:12.53 | 280812 | 299764
18 | 66:36.65 | 3:45.17 | 299765 | 316656

Характеристики диапазона извлечения и сообщения об ошибках

Выбранный диапазон

Имя файла F:\[VA] Italian Golden Ballads [CD] (lossless)\Various Artists - Italian Golden Ballads.wav

Пиковый уровень 100.0 %
Скорость извлечения 3.7 X
Качество диапазона 100.0 %
CRC теста 08B79F2B
CRC копии 08B79F2B
Копирование... OK

Ошибок не произошло

AccurateRip: сводка

Трек 1 отсутствует в базе данных
Трек 2 отсутствует в базе данных
Трек 3 отсутствует в базе данных
Трек 4 отсутствует в базе данных
Трек 5 отсутствует в базе данных
Трек 6 отсутствует в базе данных
Трек 7 отсутствует в базе данных
Трек 8 отсутствует в базе данных
Трек 9 отсутствует в базе данных
Трек 10 отсутствует в базе данных
Трек 11 отсутствует в базе данных
Трек 12 отсутствует в базе данных
Трек 13 отсутствует в базе данных
Трек 14 отсутствует в базе данных
Трек 15 отсутствует в базе данных
Трек 16 отсутствует в базе данных
Трек 17 отсутствует в базе данных
Трек 18 отсутствует в базе данных

Ни одного трека нет в базе AccurateRip

Конец отчёта

==== Контрольная сумма отчёта D1F57989FC82CB3E863E7E1785A28FB06E627D30AF193B609C4EF06C7E9F24FB ====

Детали торрента:
Название:VA - Italian Golden Ballads (2000) Unofficial Release [FLAC|Lossless|image + .cue] <Italo Pop>
Дата добавления:10 Фев 2019 15:15:23
Размер:476 MB
Раздают:39
Качают:1
Форум:Зарубежная поп-музыка (Lossless)

All rights reserved © 2015-2019