TORRENTS45.XYZ

Скачать Отвергнутые (2018) WEBRip [KZ / RU SUB]


Отвергнутые (2018) WEBRip
Производство: Казахстан / SUN Production
Жанр: Драма

Режиссер: Жанна Исабаева
Актеры: Жанаргуль Жаныаманова, Нышанбек Жубанаев, Райхан Калиолдина, Индира Кулмагамбетова, Турарбек Есим

Описание:
Айганым, молодая женщина 25 лет из многодетной семьи, возвращается домой, в аул, после долгого отсутствия. 7 лет назад она путем невероятных усилий уехала учиться в Алматы, влюбилась в парня, который сначала обещал жениться, но исчез, когда Айганым забеременела. Семья отреклась от Айганым и её рожденного вне брака сына. Через несколько лет, после смерти отца, семью возглавил старший сын Кайрат. Айганым много страдала в одиночестве, ее сыну тоже нужна родня — и Айганым возвращается домой, к своим корням, желая снова стать частью своей семьи. Любой ценой.


Возраст: 16+ (зрителям, достигшим 16 лет)

Релиз от: Алехаndr
Продолжительность: 01:30:19
Качество видео: WEBRip
Язык озвучки: Казахский
Субтитры: Русские (хардсаб)

Видео: Xvid, 720x400 (16:9), ~1920 Kbps
Аудио: AC3, 2 ch, 224 Kbps

Mediainfo:


Общее
Полное имя : G:\Отвергнутые (2018).by.Алехаndr.avi
Формат : AVI
Формат/Информация : Audio Video Interleave
Размер файла : 1,36 Гбайт
Продолжительность : 1 ч. 30 м.
Общий поток : 2153 Кбит/сек

Видео
Идентификатор : 0
Формат : MPEG-4 Visual
Профиль формата : Advanced Simple@L5
Настройки формата : BVOP2
Параметр BVOP формата : 2
Параметр QPel формата : Нет
Параметр GMC формата : Без точки перехода
Параметр матрицы формата : Default (H.263)
Идентификатор кодека : XVID
Идентификатор кодека/Подсказка : XviD
Продолжительность : 1 ч. 30 м.
Битрейт : 1918 Кбит/сек
Ширина : 720 пикселей
Высота : 400 пикселей
Соотношение сторон : 16:9
Частота кадров : 25,000 кадров/сек
Цветовое пространство : YUV
Субдискретизация насыщенности : 4:2:0
Битовая глубина : 8 бит
Тип развёртки : Прогрессивная
Метод сжатия : С потерями
Бит/(Пиксели*Кадры) : 0.266
Размер потока : 1,21 Гбайт (89%)
Библиотека кодирования : XviD 73

Аудио
Идентификатор : 1
Формат : AC-3
Формат/Информация : Audio Coding 3
Коммерческое название : Dolby Digital
Идентификатор кодека : 2000
Продолжительность : 1 ч. 30 м.
Вид битрейта : Постоянный
Битрейт : 224 Кбит/сек
Каналы : 2 канала
Channel layout : L R
Частота : 48,0 КГц
Частота кадров : 31,250 кадров/сек (1536 SPF)
Битовая глубина : 16 бит
Метод сжатия : С потерями
Размер потока : 145 Мбайт (10%)
Выравнивание : Соединение по промежуткам
Продолжительность промежутка : 32 мс. (0,80 видеокадр)
ServiceKind/String : Complete Main
Скриншоты:


Все одноименные релизы в Клубе

Детали торрента:
Название:Отвергнутые (2018) WEBRip [KZ / RU SUB]
Дата добавления:09 Фев 2019 20:28:40
Размер:1,36 GB
Раздают:1
Качают:5
Форум:Фильмы ближнего зарубежья

All rights reserved © 2015-2019