TORRENTS45.XYZ

Скачать Кайф с доставкой / High Maintenance (2019) WEBRip [H.264/1080p-LQ] (сезон 3, серии 1-4 из 9) TVShows (обновляемая)


Кайф с доставкой / High Maintenance (2019) WEBRip [H.264/1080p-LQ] (сезон 3, серии 1-4 из 9) TVShows (обновляемая)
Производство: США / HBO
Жанр: комедия

Режиссер: Катя Бликфелд, Бен Синклер, Сара Войлет-Блайс
Актеры: Бен Синклер, Эйвери Монсен, Хелен Йорк, Кендес Такстон, Молли Кнефель, Бренна Палуги, Джэми Саймон, Грета Ли, Крис Роберти, Майкл Сирил Крейтон и др.

Описание:
"Кайф с доставкой" это собрание коротких, запоминающихся историй о разных людях и причудливых человеческих судьбах,. Все эти истории связаны доставщиком травки и любовью к мариванне.


Возраст: 18+ (зрителям, достигшим 18 лет. запрещено для детей)

Продолжительность: ~00:30:00 серия
Качество видео: WEBRip
Перевод: Многоголосый закадровый, любительский (TVShows)
Субтитры: английские

Видео: AVC/H.264, 1920х1080, ~8766 Kbps
Аудио 1: AC3, 6 ch, 384 Kbps - русский, многоголосый закадровый
Аудио 2: E-AC3, 6 ch, 640 kbps - английский

Mediainfo:


General
Unique ID : 36312359926393835748050864077857726024 (0x1B518191F4B877CDF307C0F951999E48)
Complete name : C:\Users\sid34\Desktop\High.Maintenance.S03.1080p.TVShows\High.Maintenance.S03E01.1080p.TVShows.mkv
Format : Matroska
Format version : Version 4 / Version 2
File size : 2.31 GiB
Duration : 33 min 50 s
Overall bit rate : 9 792 kb/s
Encoded date : UTC 2019-02-04 10:47:59
Writing application : mkvmerge v30.1.0 ('Forever And More') 64-bit
Writing library : libebml v1.3.6 + libmatroska v1.4.9

Video
ID : 1
Format : AVC
Format/Info : Advanced Video Codec
Format profile : High@L4
Format settings : CABAC / 4 Ref Frames
Format settings, CABAC : Yes
Format settings, ReFrames : 4 frames
Codec ID : V_MPEG4/ISO/AVC
Duration : 33 min 50 s
Bit rate mode : Constant
Bit rate : 8 766 kb/s
Nominal bit rate : 10 000 kb/s
Width : 1 920 pixels
Height : 1 080 pixels
Display aspect ratio : 16:9
Frame rate mode : Constant
Frame rate : 23.976 (24000/1001) FPS
Color space : YUV
Chroma subsampling : 4:2:0
Bit depth : 8 bits
Scan type : Progressive
Bits/(Pixel*Frame) : 0.176
Stream size : 2.07 GiB (90%)
Default : Yes
Forced : No
Color range : Limited
Color primaries : BT.709
Transfer characteristics : BT.709
Matrix coefficients : BT.709

Audio #1
ID : 2
Format : AC-3
Format/Info : Audio Coding 3
Codec ID : A_AC3
Duration : 33 min 50 s
Bit rate mode : Constant
Bit rate : 384 kb/s
Channel(s) : 6 channels
Channel positions : Front: L C R, Side: L R, LFE
Sampling rate : 48.0 kHz
Frame rate : 31.250 FPS (1536 SPF)
Bit depth : 16 bits
Compression mode : Lossy
Stream size : 93.0 MiB (4%)
Title : TVShows
Language : Russian
Service kind : Complete Main
Default : Yes
Forced : Yes

Audio #2
ID : 3
Format : E-AC-3
Format/Info : Enhanced Audio Coding 3
Codec ID : A_EAC3
Duration : 33 min 50 s
Bit rate mode : Constant
Bit rate : 640 kb/s
Channel(s) : 6 channels
Channel positions : Front: L C R, Side: L R, LFE
Sampling rate : 48.0 kHz
Frame rate : 187.500 FPS (256 SPF)
Compression mode : Lossy
Delay relative to video : 26 ms
Stream size : 155 MiB (7%)
Title : Original
Language : English
Service kind : Complete Main
Default : No
Forced : No

Text
ID : 4
Format : UTF-8
Codec ID : S_TEXT/UTF8
Codec ID/Info : UTF-8 Plain Text
Duration : 33 min 31 s
Bit rate : 56 b/s
Count of elements : 455
Stream size : 13.9 KiB (0%)
Title : English
Language : English
Default : No
Forced : No

Внимание! Раздача ведётся путём добавления новых серий

Внимание! Раздача ведётся путём добавления новых серий; при каждом добавлении создаётся новый торрент.
Чтобы начать докачку новой серии, пользователям необходимо сделать следующее:
1. Остановить скачивание;
2. Удалить старый торрент у себя из клиента (старые серии удалять не надо);
3. Скачать новый торрент и запустить его у себя в клиенте вместо старого, при этом указать клиенту путь в старую папку куда и должно происходить скачивание новых серий. Ваш клиент при этом должен произвести хеширование (проверку) старой папки и будет докачивать только те серии, которых у вас ещё нет. Старые серии при этом не удаляются, а продолжают раздаваться! Eсли вы уже удалили старые серии, то предотвратить повторную закачку старых серий можно, отжав галочку в соответствующих местах при запуске нового торрента.
Скриншоты:


Все одноименные релизы в Клубе

Детали торрента:
Название:Кайф с доставкой / High Maintenance (2019) WEBRip [H.264/1080p-LQ] (сезон 3, серии 1-4 из 9) TVShows (обновляемая)
Дата добавления:19 Фев 2019 19:06:44
Размер:7,88 GB
Раздают:
Качают:15
Форум:Зарубежные сериалы

All rights reserved © 2015-2019