TORRENTS45.XYZ

Скачать Звёздный путь: Дискавери / Star Trek: Discovery (2019) WEB-DLRip (сезон 2, серии 1-5 из 15) SDI Media (обновляемая)


Звёздный путь: Дискавери / Star Trek: Discovery (2019) WEB-DLRip (сезон 2, серии 1-5 из 15) SDI Media (обновляемая)
Производство: США / CBS Television Studios, Living Dead Guy Productions, Roddenberry
Жанр: фантастика, боевик, драма, приключения

Режиссер: Олатунде Осунсанми, Дуглас Арниокоски, Джонатан Фрейкс
Актеры: Сонекуа Мартин-Грин, Даг Джонс, Энтони Рэпп, Мэри Вайсман, Шазад Латиф, Эмили Куттс, Джейсон Айзекс, Энсон Маунт, Джулианна Гроссман и др.

Описание:
Действие второй главы развернется за десять лет до событий оригинального «Звездного пути» и заполнит пробелы между знаменитой пилотной серией под названием "Клетка", которая стилистически отличается от шоу, и всеми любимым сериалом. Возможно, аудитория увидит, как Спок трансформируется из более человечного и расслабленного персонажа в рассудительного и безэмоционального вулканца. Пайк же встанет у руля корабля «Дискавери». Сначала команда недоверчиво отнесется к новому руководителю, но в конце концов поддастся его очарованию.


Возраст: 16+ (зрителям, достигшим 16 лет)

Продолжительность: ~00:50:00 серия
Качество видео: WEB-DLRip
Перевод: Многоголосый закадровый профессиональный (SDI Media)
Субтитры: русские форсированные, русские полные (Netflix), английские (SDH)

Видео: Xvid, 720x304, ~1455 Kbps
Аудио 1: MP3, 2 ch, 128 Kbps - русский, многоголосый закадровый
Аудио 2: MP3, 2 ch, 128 Kbps - английский

Mediainfo:


General
Complete name : E:\Кино\Star Trek Discovery (Season 02) SDI Media\Star.Trek.Discovery.S02E01.WEB-DLRip.Rus.Eng.SDI.Media.avi
Format : AVI
Format/Info : Audio Video Interleave
File size : 751 MiB
Duration : 1 h 0 min
Overall bit rate : 1 725 kb/s
Writing application : VirtualDubMod 1.5.10.3 | www.virtualdub-fr.org || (build 2550/release)
Writing library : VirtualDubMod build 2550/release

Video
ID : 0
Format : MPEG-4 Visual
Format profile : Advanced Simple@L5
Format settings : BVOP1 / Custom Matrix
Format settings, BVOP : 1
Format settings, QPel : No
Format settings, GMC : No warppoints
Format settings, Matrix : Custom
Codec ID : XVID
Codec ID/Hint : XviD
Duration : 1 h 0 min
Bit rate : 1 455 kb/s
Width : 720 pixels
Height : 304 pixels
Display aspect ratio : 2.35:1
Frame rate : 23.976 (24000/1001) FPS
Color space : YUV
Chroma subsampling : 4:2:0
Bit depth : 8 bits
Scan type : Progressive
Compression mode : Lossy
Bits/(Pixel*Frame) : 0.277
Stream size : 633 MiB (84%)
Writing library : XviD 73

Audio #1
ID : 1
Format : MPEG Audio
Format version : Version 1
Format profile : Layer 3
Format settings : Joint stereo / MS Stereo
Codec ID : 55
Codec ID/Hint : MP3
Duration : 1 h 0 min
Bit rate mode : Constant
Bit rate : 128 kb/s
Channel(s) : 2 channels
Sampling rate : 48.0 kHz
Compression mode : Lossy
Stream size : 55.7 MiB (7%)
Alignment : Aligned on interleaves
Interleave, duration : 42 ms (1.00 video frame)
Interleave, preload duration : 504 ms

Audio #2
ID : 2
Format : MPEG Audio
Format version : Version 1
Format profile : Layer 3
Format settings : Joint stereo / MS Stereo
Codec ID : 55
Codec ID/Hint : MP3
Duration : 1 h 0 min
Bit rate mode : Constant
Bit rate : 128 kb/s
Channel(s) : 2 channels
Sampling rate : 48.0 kHz
Compression mode : Lossy
Stream size : 55.7 MiB (7%)
Alignment : Aligned on interleaves
Interleave, duration : 42 ms (1.00 video frame)
Interleave, preload duration : 504 ms

Список серий:

01. Брат
02. Новый Эдем
03. Точка света
04. Монетка для Харона
05. Святые несовершенства

Внимание! Раздача ведётся путём добавления новых серий:

Внимание! Раздача ведётся путём добавления новых серий; при каждом добавлении создаётся новый торрент.
Чтобы начать докачку новой серии, пользователям необходимо сделать следующее:
1. Остановить скачивание;
2. Удалить старый торрент у себя из клиента (старые серии удалять не надо);
3. Скачать новый торрент и запустить его у себя в клиенте вместо старого, при этом указать клиенту путь в старую папку куда и должно происходить скачивание новых серий. Ваш клиент при этом должен произвести хеширование (проверку) старой папки и будет докачивать только те серии, которых у вас ещё нет. Старые серии при этом не удаляются, а продолжают раздаваться! Eсли вы уже удалили старые серии, то предотвратить повторную закачку старых серий можно, отжав галочку в соответствующих местах при запуске нового торрента.
Скриншоты:


Все одноименные релизы в Клубе

Смотреть Online


Детали торрента:
Название:Звёздный путь: Дискавери / Star Trek: Discovery (2019) WEB-DLRip (сезон 2, серии 1-5 из 15) SDI Media (обновляемая)
Дата добавления:16 Фев 2019 05:28:30
Размер:3,19 GB
Раздают:11
Качают:11
Форум:Звездный путь / Star Trek

All rights reserved © 2015-2019