TORRENTS45.XYZ

Скачать Приятные хлопоты / Good Trouble (2019) WEB-DL [H.264/1080p-LQ] (сезон 1, серии 1-6 из 13) TVShows (обновляемая)


Приятные хлопоты / Good Trouble (2019) WEB-DL [H.264/1080p-LQ] (сезон 1, серии 1-6 из 13)
Производство: США / Blazing Elm Entertainment, Nuyorican Productions
Жанр: драма, мелодрама, комедия

Режиссер: Брэд Бредевег, Тройэн Эвери Беллисарио, Джон М. Чу
Актеры: Майя Митчелл, Сьерра Рамирес, Зури Аделе, Шерри Кола, Томми Мартинес, Роджер Барт, Эмма Хантон, Кен Кирби, Дхрув Сингх, Дастин Ингрэм

Описание:
Сёстры Кэлли и Мариана начинают самостоятельную жизнь в Лос-Анджелесе. У них новый дом, новые друзья, новые занятия и новые увлечения. Осваиваясь в непривычной для себя обстановке, девушки сталкиваются с первыми серьёзными проблемами на своём жизненном пути.


Дата мировой премьеры: 8 января 2019

Продолжительность: ~00:45:00 серия
Качество видео: WEB-DL
Перевод: Многоголосый закадровый, любительский - (TVShows)
Субтитры: английские

Видео: AVC/H.264, 1920x1080, ~8443 Kbps
Аудио 1: AC3, 6 ch, 384 Kbps - русский, многоголосый закадровый
Аудио 2: E-AC3, 6 ch, 640 kbps - английский

Mediainfo:


General
Unique ID : 155774217926476640357069577138319955316 (0x753105E90467C59C7CBD87E1B0809574)
Complete name : F:\Good.Trouble.S01.1080p.TVShows\Good.Trouble.S01E01.1080p.TVShows.mkv
Format : Matroska
Format version : Version 4 / Version 2
File size : 3.31 GiB
Duration : 50 min 6 s
Overall bit rate : 9 469 kb/s
Encoded date : UTC 2019-01-30 10:20:34
Writing application : mkvmerge v30.1.0 ('Forever And More') 64-bit
Writing library : libebml v1.3.6 + libmatroska v1.4.9

Video
ID : 1
Format : AVC
Format/Info : Advanced Video Codec
Format profile : High@L4
Format settings : CABAC / 4 Ref Frames
Format settings, CABAC : Yes
Format settings, ReFrames : 4 frames
Codec ID : V_MPEG4/ISO/AVC
Duration : 50 min 6 s
Bit rate : 8 443 kb/s
Width : 1 920 pixels
Height : 1 080 pixels
Display aspect ratio : 16:9
Frame rate mode : Constant
Frame rate : 23.976 (24000/1001) FPS
Color space : YUV
Chroma subsampling : 4:2:0
Bit depth : 8 bits
Scan type : Progressive
Bits/(Pixel*Frame) : 0.170
Stream size : 2.95 GiB (89%)
Default : Yes
Forced : No
Color range : Limited
Color primaries : BT.709
Transfer characteristics : BT.709
Matrix coefficients : BT.709

Audio #1
ID : 2
Format : AC-3
Format/Info : Audio Coding 3
Codec ID : A_AC3
Duration : 50 min 6 s
Bit rate mode : Constant
Bit rate : 384 kb/s
Channel(s) : 6 channels
Channel positions : Front: L C R, Side: L R, LFE
Sampling rate : 48.0 kHz
Frame rate : 31.250 FPS (1536 SPF)
Bit depth : 16 bits
Compression mode : Lossy
Stream size : 138 MiB (4%)
Title : TVShows
Language : Russian
Service kind : Complete Main
Default : No
Forced : Yes

Audio #2
ID : 3
Format : E-AC-3
Format/Info : Enhanced Audio Coding 3
Codec ID : A_EAC3
Duration : 50 min 6 s
Bit rate mode : Constant
Bit rate : 640 kb/s
Channel(s) : 6 channels
Channel positions : Front: L C R, Side: L R, LFE
Sampling rate : 48.0 kHz
Frame rate : 187.500 FPS (256 SPF)
Compression mode : Lossy
Stream size : 229 MiB (7%)
Title : Original
Language : English
Service kind : Complete Main
Default : No
Forced : No

Text
ID : 4
Format : UTF-8
Codec ID : S_TEXT/UTF8
Codec ID/Info : UTF-8 Plain Text
Duration : 49 min 31 s
Bit rate : 79 b/s
Count of elements : 967
Stream size : 28.7 KiB (0%)
Title : English
Language : English
Default : No
Forced : No

Внимание! Раздача ведётся путём добавления новых серий

Внимание! Раздача ведётся путём добавления новых серий; при каждом добавлении создаётся новый торрент.
Чтобы начать докачку новой серии, пользователям необходимо сделать следующее:
1. Остановить скачивание;
2. Удалить старый торрент у себя из клиента (старые серии удалять не надо);
3. Скачать новый торрент и запустить его у себя в клиенте вместо старого, при этом указать клиенту путь в старую папку куда и должно происходить скачивание новых серий. Ваш клиент при этом должен произвести хеширование (проверку) старой папки и будет докачивать только те серии, которых у вас ещё нет. Старые серии при этом не удаляются, а продолжают раздаваться! Eсли вы уже удалили старые серии, то предотвратить повторную закачку старых серий можно, отжав галочку в соответствующих местах при запуске нового торрента.
Скриншоты:


Все одноименные релизы в Клубе

Смотреть Online


Детали торрента:
Название:Приятные хлопоты / Good Trouble (2019) WEB-DL [H.264/1080p-LQ] (сезон 1, серии 1-6 из 13) TVShows (обновляемая)
Дата добавления:20 Фев 2019 14:32:50
Размер:18,7 GB
Раздают:
Качают:0
Форум:Зарубежные сериалы

All rights reserved © 2015-2019