TORRENTS45.XYZ

Скачать Двойник / По ту сторону / Обратная сторона / Counterpart (2018) WEB-DL [H.264/1080p-LQ] (сезон 2, серии 1-9 из 10) Кириллица, LostFilm (обновляемая)


Двойник / По ту сторону / Обратная сторона / Counterpart (2018) WEB-DL [H.264/1080p-LQ] (сезон 2, серии 1-9 из 10) Кириллица, LostFilm (обновляемая)
Производство: США / Fireglory Pictures, Anonymous Content, Gilbert Films
Жанр: фантастика, триллер, драма

Режиссер: Шарлотта Брандстром, Лукас Эттлин
Актеры: Дж.К. Симмонс, Гарри Ллойд, Назанин Бониади, Оливия Уильямс, Сара Серайокко, Гай Бернет, Бетти Гэбриел, Мирела Берк, Сара Болгер, Каран Оберой и др.

Описание:
Второй сезон сериала возвращает зрителей в мрачноватый мир, где живет двойник главного героя. Говард-Альфа и Говард-Прайм по-прежнему очень сильно отличаются, но у них с каждой встречей становится все больше общего.


Возраст: 18+ (зрителям, достигшим 18 лет)

Релиз от: ZgurVas

Продолжительность: ~00:58:00 серия
Качество видео: WEB-DL
Перевод: Многоголосый закадровый, профессиональный - Кириллица, LostFilm
Субтитры: русские, английские

Видео: AVC, 1920x1080 (16:9), ~4793 kbps
Аудио 1: AC3, 6 ch, 384 kbps — русский, многоголосый закадровый Кириллица
Аудио 2: AC3, 6 ch, 640 kbps — русский, многоголосый закадровый LostFilm
Аудио 3: E-AC3, 6 ch, 640 kbps — английский

MediaInfo


Полное имя : D:\Counterpart.S02.1080p.WEB-DL.Rus.Eng.EniaHD\Counterpart.S02E01.Inside.Out.1080p.WEB-DL.Rus.Eng.EniaHD.mkv
Формат : Matroska
Версия формата : Version 4
Размер файла : 2,64 Гбайт
Продолжительность : 58 м. 34 с.
Общий поток : 6461 Кбит/сек
Название фильма : Изнанка
Дата кодирования : UTC 2018-12-13 15:25:28
Программа кодирования : mkvmerge v28.2.0 ('The Awakening') 32-bit
Библиотека кодирования : libebml v1.3.6 + libmatroska v1.4.9
Обложка : Yes
Attachments : cover.counterpart.jpg

Видео
Идентификатор : 1
Формат : AVC
Формат/Информация : Advanced Video Codec
Профиль формата : High@L4
Настройки формата : CABAC / 4 Ref Frames
Параметр CABAC формата : Да
Параметр RefFrames формата : 4 кадра
Идентификатор кодека : V_MPEG4/ISO/AVC
Продолжительность : 58 м. 34 с.
Битрейт : 4793 Кбит/сек
Ширина : 1920 пикселей
Высота : 1080 пикселей
Соотношение сторон : 16:9
Режим частоты кадров : Постоянный
Частота кадров : 23,976 (24000/1001) кадра/сек
Цветовое пространство : YUV
Субдискретизация насыщенности : 4:2:0
Битовая глубина : 8 бит
Тип развёртки : Прогрессивная
Бит/(Пиксели*Кадры) : 0.096
Размер потока : 1,96 Гбайт (74%)
Заголовок : Counterpart.S02E01.Inside.Out.1080p.WEB-DL.Rus.Eng.EniaHD
Язык : English
Default : Да
Forced : Нет
Цветовой диапазон : Limited
Основные цвета : BT.709
Характеристики трансфера : BT.709
Коэффициенты матрицы : BT.709

Аудио #1
Идентификатор : 2
Формат : AC-3
Формат/Информация : Audio Coding 3
Коммерческое название : Dolby Digital
Идентификатор кодека : A_AC3
Продолжительность : 58 м. 34 с.
Вид битрейта : Постоянный
Битрейт : 384 Кбит/сек
Каналы : 6 каналов
Channel layout : L R C LFE Ls Rs
Частота : 48,0 КГц
Частота кадров : 31,250 кадров/сек (1536 SPF)
Битовая глубина : 16 бит
Метод сжатия : С потерями
Размер потока : 161 Мбайт (6%)
Заголовок : AC3 5.1 @ 384 kbps - MVO, Кириллица
Язык : Russian
ServiceKind/String : Complete Main
Default : Да
Forced : Нет

Аудио #2
Идентификатор : 3
Формат : AC-3
Формат/Информация : Audio Coding 3
Коммерческое название : Dolby Digital
Идентификатор кодека : A_AC3
Продолжительность : 58 м. 34 с.
Вид битрейта : Постоянный
Битрейт : 640 Кбит/сек
Каналы : 6 каналов
Channel layout : L R C LFE Ls Rs
Частота : 48,0 КГц
Частота кадров : 31,250 кадров/сек (1536 SPF)
Битовая глубина : 16 бит
Метод сжатия : С потерями
Размер потока : 268 Мбайт (10%)
Заголовок : AC3 5.1 @ 640 kbps - MVO, LostFilm
Язык : Russian
ServiceKind/String : Complete Main
Default : Нет
Forced : Нет

Аудио #3
Идентификатор : 4
Формат : E-AC-3
Формат/Информация : Enhanced AC-3
Коммерческое название : Dolby Digital Plus
Идентификатор кодека : A_EAC3
Продолжительность : 58 м. 34 с.
Вид битрейта : Постоянный
Битрейт : 640 Кбит/сек
Каналы : 6 каналов
Channel layout : L R C LFE Ls Rs
Частота : 48,0 КГц
Частота кадров : 31,250 кадров/сек (1536 SPF)
Метод сжатия : С потерями
Размер потока : 268 Мбайт (10%)
Заголовок : E-AC3 5.1 @ 640 kbps - Original
Язык : English
ServiceKind/String : Complete Main
Default : Нет
Forced : Нет

Текст #1
Идентификатор : 5
Формат : UTF-8
Идентификатор кодека : S_TEXT/UTF8
Идентификатор кодека/Информация : UTF-8 Plain Text
Продолжительность : 53 м. 13 с.
Битрейт : 3 бит/сек
ElementCount : 27
Размер потока : 1,33 Кбайт (0%)
Заголовок : Forced
Язык : Russian
Default : Да
Forced : Да

Текст #2
Идентификатор : 6
Формат : UTF-8
Идентификатор кодека : S_TEXT/UTF8
Идентификатор кодека/Информация : UTF-8 Plain Text
Продолжительность : 56 м. 13 с.
Битрейт : 86 бит/сек
ElementCount : 729
Размер потока : 35,8 Кбайт (0%)
Заголовок : Full
Язык : Russian
Default : Нет
Forced : Нет

Текст #3
Идентификатор : 7
Формат : UTF-8
Идентификатор кодека : S_TEXT/UTF8
Идентификатор кодека/Информация : UTF-8 Plain Text
Продолжительность : 56 м. 16 с.
Битрейт : 55 бит/сек
ElementCount : 805
Размер потока : 22,7 Кбайт (0%)
Заголовок : Full SDH
Язык : English
Default : Нет
Forced : Нет

Список серий

01. Inside Out / Изнутри
02. Outside In / Снаружи
03. Something Borrowed / Что-то позаимствованное
04. Point of Departure / Точка расхождения
05. Shadow Puppets / Марионетки
06. Twin Cities / Города-близнецы
07. No Strings Attached / Без обязательств
08. In from the Cold / Вернуться с холода
09. You to You / От тебя тебе

Дополнительная информация

спасибо EniaHD
За русские субтитры спасибо FOCS
За запись с ВИПа спасибо Wilmots
Работа со звуком itunestv
Сборка Zgurvas

Раздача ведётся путём добавления новых серий

Раздача ведётся путём добавления новых серий; при каждом добавлении создаётся новый торрент. Чтобы начать докачку новой серии, пользователям необходимо сделать следующее:
(1) остановить скачивание,
(2) удалить старый торрент у себя из клиента (старые серии удалять не надо),
(3) скачать новый торрент и запустить его у себя в клиенте вместо старого, при этом указать клиенту путь в старую папку куда и должно происходить скачивание новых серий.

Ваш клиент при этом должен произвести хеширование (проверку) старой папки (если не производит сам - помогите ему сделать это), и будет докачивать только те серии которых у вас ещё нет. Старые серии при этом не удаляются, а продолжают раздаваться!

Eсли вы уже удалили старые серии, то предотвратить повторную закачку старых серий можно, отжав галочку в соответствующих местах при запуске нового торрента. По возможности, желательно не удалять старые серии как можно дольше чтобы релизёр не столько продолжал раздавать старые серии, а смог сконцентрироваться на новых.
Скриншоты:



Все одноименные релизы в Клубе

Смотреть Online


Детали торрента:
Название:Двойник / По ту сторону / Обратная сторона / Counterpart (2018) WEB-DL [H.264/1080p-LQ] (сезон 2, серии 1-9 из 10) Кириллица, LostFilm (обновляемая)
Дата добавления:20 Фев 2019 06:36:38
Размер:22,3 GB
Раздают:10
Качают:7
Форум:Зарубежные сериалы

All rights reserved © 2015-2019