TORRENTS45.XYZ

Скачать Теория большого взрыва / The Big Bang Theory (2018) WEB-DL [H.264/720p-LQ] (сезон 12, серии 1-13 из 24) Кураж-Бамбей (обновляемая)


Теория большого взрыва / The Big Bang Theory (2018) WEB-DL [H.264/720p-LQ] (сезон 12, серии 1-13 из 24) Кураж-Бамбей (обновляемая)
«Smart Is The New Sexy»

Производство: США / Chuck Lorre Productions, Warner Bros. Television
Жанр: мелодрама, комедия

Режиссер: Марк Сендроуски
Актеры: Джонни Галэки, Джим Парсонс, Кейли Куоко, Саймон Хелберг, Кунал Нэйэр, Мелисса Рауш, Майем Биалик, Кевин Сасмэн, Джон Росс Боуи, Уил Уитон и др.

Описание:
Продолжение забавных приключений гениальных физиков Шелдона Купера и Леонарда Хофстедтера, которые, несмотря на полное отсутствие коммуникативных навыков умудряются находить общий язык не только со своими «половинками» Эми и Пенни, но и с приятелями-учеными Раджем Кутраппали, Говардом и Бернадетт Воловиц.


Возраст: 16+ (зрителям, достигшим 16 лет)

Релиз от: Kastiel

Продолжительность: ~00:21:00 серия
Качество видео: WEB-DL
Перевод: Одноголосый закадровый, профессиональный - Кураж-Бамбей по заказу Paramount Comedy
Субтитры: русские, английские

Видео: AVC, 1280x720 (16:9), ~3633 kbps
Аудио 1: AC3, 2 ch, 192 kbps — русский, одноголосый закадровый
Аудио 2: AC3, 6 ch, 640 kbps — английский

MediaInfo


General
Unique ID : 244415555228221391101875477092798450843 (0xB7E0B9425BE08942A915EA9073124C9B)
Complete name : The.Big.Bang.Theory.s12e01.WEB-DL.720p.mkv
Format : Matroska
Format version : Version 4
File size : 659 MiB
Duration : 20 min 37 s
Overall bit rate : 4 467 kb/s
Movie name : The Big Bang Theory 12x01 (The Conjugal Configuration) - release by Kastiel for EniaHD
Encoded date : UTC 2018-10-19 16:46:15
Writing application : mkvmerge v18.0.0 ('Apricity') 64-bit
Writing library : libebml v1.3.5 + libmatroska v1.4.8

Video
ID : 1
Format : AVC
Format/Info : Advanced Video Codec
Format profile : High@L3.1
Format settings : CABAC / 5 Ref Frames
Format settings, CABAC : Yes
Format settings, ReFrames : 5 frames
Codec ID : V_MPEG4/ISO/AVC
Duration : 20 min 37 s
Bit rate : 3 633 kb/s
Width : 1 280 pixels
Height : 720 pixels
Display aspect ratio : 16:9
Frame rate mode : Constant
Frame rate : 24.000 FPS
Color space : YUV
Chroma subsampling : 4:2:0
Bit depth : 8 bits
Scan type : Progressive
Bits/(Pixel*Frame) : 0.164
Stream size : 536 MiB (81%)
Default : Yes
Forced : No
Color range : Limited
Color primaries : BT.709
Transfer characteristics : BT.709
Matrix coefficients : BT.709

Audio #1
ID : 2
Format : AC-3
Format/Info : Audio Coding 3
Commercial name : Dolby Digital
Codec ID : A_AC3
Duration : 20 min 37 s
Bit rate mode : Constant
Bit rate : 192 kb/s
Channel(s) : 2 channels
Channel layout : L R
Sampling rate : 48.0 kHz
Frame rate : 31.250 FPS (1536 SPF)
Bit depth : 16 bits
Compression mode : Lossy
Stream size : 28.3 MiB (4%)
Title : DD2.0 Кураж-Бамбей
Language : Russian
Service kind : Complete Main
Default : Yes
Forced : No

Audio #2
ID : 3
Format : AC-3
Format/Info : Audio Coding 3
Commercial name : Dolby Digital
Codec ID : A_AC3
Duration : 20 min 37 s
Bit rate mode : Constant
Bit rate : 640 kb/s
Channel(s) : 6 channels
Channel layout : L R C LFE Ls Rs
Sampling rate : 48.0 kHz
Frame rate : 31.250 FPS (1536 SPF)
Bit depth : 16 bits
Compression mode : Lossy
Stream size : 94.4 MiB (14%)
Title : DD5.1 Original
Language : English
Service kind : Complete Main
Default : No
Forced : No

Text
ID : 4
Format : UTF-8
Codec ID : S_TEXT/UTF8
Codec ID/Info : UTF-8 Plain Text
Duration : 20 min 13 s
Bit rate : 93 b/s
Count of elements : 405
Stream size : 13.8 KiB (0%)
Title : SDH
Language : English
Default : No
Forced : No

Список серий:

01. The Conjugal Configuration
02. The Wedding Gift Wormhole
03. The Procreation Calculation
04. The Tam Turbulence
05. The Planetarium Collision
06. The Imitation Perturbation
07. The Grant Allocation Derivation
08. The Consummation Deviation
09. The Citation Negation
10. The VCR Illumination
11. The Paintball Scattering
12. The Propagation Proposition
13. The Confirmation Polarization

Дополнительная информация:

Без рекламы!
Исходник: The.Big.Bang.Theory.S12.720p.AMZN.WEB-DL.DDP5.1.x264-NTb
Отдельная благодарность за синхронизацию звука - itunestv
Отдельная благодарность за синхронизацию субтитров - Keedof

Раздача ведётся путём добавления новых серий

Раздача ведётся путём добавления новых серий; при каждом добавлении создаётся новый торрент. Чтобы начать докачку новой серии, пользователям необходимо сделать следующее:
(1) остановить скачивание,
(2) удалить старый торрент у себя из клиента (старые серии удалять не надо),
(3) скачать новый торрент и запустить его у себя в клиенте вместо старого, при этом указать клиенту путь в старую папку куда и должно происходить скачивание новых серий.

Ваш клиент при этом должен произвести хеширование (проверку) старой папки (если не производит сам - помогите ему сделать это), и будет докачивать только те серии которых у вас ещё нет. Старые серии при этом не удаляются, а продолжают раздаваться!

Eсли вы уже удалили старые серии, то предотвратить повторную закачку старых серий можно, отжав галочку в соответствующих местах при запуске нового торрента. По возможности, желательно не удалять старые серии как можно дольше чтобы релизёр не столько продолжал раздавать старые серии, а смог сконцентрироваться на новых.
Скриншоты:



Все одноименные релизы в Клубе

Смотреть Online


Детали торрента:
Название:Теория большого взрыва / The Big Bang Theory (2018) WEB-DL [H.264/720p-LQ] (сезон 12, серии 1-13 из 24) Кураж-Бамбей (обновляемая)
Дата добавления:11 Фев 2019 03:57:31
Размер:8,49 GB
Раздают:38
Качают:47
Форум:Теория Большого Взрыва / The Big Bang Theory

All rights reserved © 2015-2019