TORRENTS45.XYZ

Скачать Проект засекречен / Проект "Синяя книга" / Project Blue Book (2019) WEB-DL [H.264/1080p-LQ] (сезон 1, серии 1-6 из 10) LostFilm (обновляемая)


Проект засекречен / Проект "Синяя книга" / Project Blue Book (2019) WEB-DL [H.264/1080p-LQ] (сезон 1, серии 1-6 из 10) LostFilm
Производство: США / A+E Studios, Compari Entertainment, History Channel
Жанр: детектив, история

Режиссер: Роберт Стромберг, Пит Трэвис, Норма Бэйли
Актеры: Эйдан Гиллен, Майкл Маларки, Лаура Меннелл, Ксения Соло, Майкл Харни, Нил МакДонаф, Роберт Джон Бёрк, Джилл Моррисон, Хезер Дорксен, Николас Холмс и др.

Описание:
Сюжет отправляет зрителей в пятидесятые годы прошлого века. В центре внимания сюжета оказывается астроном Джон Аллен Хинек, который вместе с капитаном военно-воздушных сил Соединенных Штатов Америки Майклом Квинном занимается расследованием странных документов, свидетельствующих о появлении в небе неопознанных летающих объектов. Неужели все истории об инопланетянах правда? Или же это чья-то хитрая игра? Главные герои в ходе расследования выходят на людей из правительства, между которыми сложились доверительные отношения. Кажется, именно они устроили заговор, введший многих в заблуждение. Но какова правда?


Дата мировой премьеры: 8 января 2019

Релиз от: itunestv@eniahd

Продолжительность: ~00:44:00 серия
Качество видео: WEB-DL
Перевод: Многоголосый закадровый, профессиональный - LostFilm
Субтитры: русские (форс.), английские (SDH)

Видео: AVC/H.264, 1920x960, ~6365 Kbps
Аудио 01: AC3, 2 ch, 192 Kbps - русский, многоголосый закадровый
Аудио 02: E-AC-3, 2 ch, 224 Kbps - английский

Mediainfo:


Общее
Уникальный идентификатор : 94325140439272765789171522944982828746 (0x46F65C7AC09C022289157BCCC1DBC6CA)
Полное имя : \Project.Blue.Book.S01E01.The.Fuller.Dogfight.1080p.AMZN.WEB-DL.H.264.RUS.LF.DD2.0-EniaHD.mkv
Формат : Matroska
Версия формата : Version 4
Размер файла : 2,10 Гбайт
Продолжительность : 44 м. 16 с.
Общий поток : 6783 Кбит/сек
Название фильма : Project Blue Book, Season 1 / The Fuller Dogfight
Трек/Положение : 1
Трек/Всего : 10
Описание : Ohio State astrophysicist Dr. Allen Hynek is recruited by the Air Force into their top-secret program investigating UFOs called Project Blue Book. Partnered with Captain Michael Quinn, they investigate the case of a military pilot who survived a dogfight with an alien craft. Based on the "Gorman Dogfight" case.
Дата выпуска : UTC 2019-01-09 03:00:00
Программа кодирования : mkvmerge v30.1.0 ('Forever And More') 64-bit
Библиотека кодирования : libebml v1.3.6 + libmatroska v1.4.9
Авторское право : aXR1bmVzdHZAZW5pYWhkLmNvbQ==
Обложка : Yes
Attachments : small_cover.jpg / cover.jpg

Видео
Идентификатор : 1
Формат : AVC
Формат/Информация : Advanced Video Codec
Профиль формата : High@L4
Настройки формата : CABAC / 4 Ref Frames
Параметр CABAC формата : Да
Параметр RefFrames формата : 4 кадра
Идентификатор кодека : V_MPEG4/ISO/AVC
Продолжительность : 44 м. 16 с.
Вид битрейта : Постоянный
Битрейт : 6365 Кбит/сек
Номинальный битрейт : 10000 Кбит/сек
Ширина : 1920 пикселей
Высота : 960 пикселей
Соотношение сторон : 2,000
Режим частоты кадров : Постоянный
Частота кадров : 23,976 (24000/1001) кадра/сек
Цветовое пространство : YUV
Субдискретизация насыщенности : 4:2:0
Битовая глубина : 8 бит
Тип развёртки : Прогрессивная
Бит/(Пиксели*Кадры) : 0.144
Размер потока : 1,97 Гбайт (94%)
Язык : English
Default : Да
Forced : Нет
Цветовой диапазон : Limited
Основные цвета : BT.709
Характеристики трансфера : BT.709
Коэффициенты матрицы : BT.709

Аудио #1
Идентификатор : 2
Формат : AC-3
Формат/Информация : Audio Coding 3
Коммерческое название : Dolby Digital
Идентификатор кодека : A_AC3
Продолжительность : 44 м. 16 с.
Вид битрейта : Постоянный
Битрейт : 192 Кбит/сек
Каналы : 2 канала
Channel layout : L R
Частота : 48,0 КГц
Частота кадров : 31,250 кадров/сек (1536 SPF)
Битовая глубина : 16 бит
Метод сжатия : С потерями
Размер потока : 60,8 Мбайт (3%)
Заголовок : AC3 2.0 @ 192 kbps - MVO, Lostfilm
Язык : Russian
ServiceKind/String : Complete Main
Default : Да
Forced : Нет
Дата выпуска : UTC 2019-01-14 18:33:50

Аудио #2
Идентификатор : 3
Формат : E-AC-3
Формат/Информация : Enhanced AC-3
Коммерческое название : Dolby Digital Plus
Идентификатор кодека : A_EAC3
Продолжительность : 44 м. 16 с.
Вид битрейта : Постоянный
Битрейт : 224 Кбит/сек
Каналы : 2 канала
Channel layout : L R
Частота : 48,0 КГц
Частота кадров : 31,250 кадров/сек (1536 SPF)
Метод сжатия : С потерями
Размер потока : 70,9 Мбайт (3%)
Заголовок : E-AC3 2.0 @ 224 kbps - Original
Язык : English
ServiceKind/String : Complete Main
Default : Нет
Forced : Нет

Текст #1
Идентификатор : 4
Формат : UTF-8
Идентификатор кодека : S_TEXT/UTF8
Идентификатор кодека/Информация : UTF-8 Plain Text
Продолжительность : 43 м. 8 с.
Битрейт : 4 бит/сек
ElementCount : 25
Размер потока : 1,33 Кбайт (0%)
Заголовок : Forced
Язык : Russian
Default : Да
Forced : Да

Текст #2
Идентификатор : 5
Формат : UTF-8
Идентификатор кодека : S_TEXT/UTF8
Идентификатор кодека/Информация : UTF-8 Plain Text
Продолжительность : 44 м. 0 с.
Битрейт : 80 бит/сек
ElementCount : 905
Размер потока : 25,8 Кбайт (0%)
Заголовок : SDH
Язык : English
Default : Нет
Forced : Нет

Список серий

01. The Fuller Dogfight (2019-01-08) / Воздушный бой Фуллера (14.01.2019 18:33:50)
02. The Flatwoods Monster (2019-01-15) / Флэтвудский монстр (19.01.2019 19:59:58)
03. The Lubbock Lights (2019-01-22) / Лаббокские огни (26.01.2019 21:15:27)
04. Operation Paperclip (2019-01-29) / Операция Скрепка (01.02.2019 19:39:05)
05. Foo Fighters (2019-02-05) / Некие истребители (09.02.2019 19:08:18)
06. The Green Fireballs (2019-02-12) / Зеленые огни (16.02.2019 16:23:22)
07. The Scoutmaster (2019-02-19) / (23.02.2019)
08. War Games (2019-02-26) / (02.03.2019)
09. Abduction (2019-03-05)

Дополнительная информация:



Работа со звуком: itunestv@eniahd

Внимание! Раздача ведётся путём добавления новых серий

Внимание! Раздача ведётся путём добавления новых серий; при каждом добавлении создаётся новый торрент.
Чтобы начать докачку новой серии, пользователям необходимо сделать следующее:
1. Остановить скачивание;
2. Удалить старый торрент у себя из клиента (старые серии удалять не надо);
3. Скачать новый торрент и запустить его у себя в клиенте вместо старого, при этом указать клиенту путь в старую папку куда и должно происходить скачивание новых серий. Ваш клиент при этом должен произвести хеширование (проверку) старой папки и будет докачивать только те серии, которых у вас ещё нет. Старые серии при этом не удаляются, а продолжают раздаваться! Eсли вы уже удалили старые серии, то предотвратить повторную закачку старых серий можно, отжав галочку в соответствующих местах при запуске нового торрента.
Скриншоты:


Все одноименные релизы в Клубе

Смотреть Online


Детали торрента:
Название:Проект засекречен / Проект "Синяя книга" / Project Blue Book (2019) WEB-DL [H.264/1080p-LQ] (сезон 1, серии 1-6 из 10) LostFilm (обновляемая)
Дата добавления:17 Фев 2019 11:17:57
Размер:12,7 GB
Раздают:48
Качают:18
Форум:Зарубежные сериалы

All rights reserved © 2015-2019