TORRENTS45.XYZ

Скачать Звездный путь: Дискавери / Star Trek: Discovery (2019) WEB-DLRip [H.264/1080p-LQ] (сезон 2, серии 1-5 из 14) LostFilm (обновляемая)


Звездный путь: Дискавери / Star Trek: Discovery (2019) WEB-DLRip [H.264/1080p-LQ] (сезон 2, серии 1-5 из 14)
Производство: США
Жанр: фантастика, боевик, драма, приключения

Режиссер: Олатунде Осунсанми, Дуглас Арниокоски, Джонатан Фрейкс
Актеры: Сонекуа Мартин-Грин, Даг Джонс, Энтони Рэпп, Мэри Вайсман, Шазад Латиф, Эмили Куттс, Джейсон Айзекс, Энсон Маунт, Джулианна Гроссман и др.

Описание:
Действие второй главы развернется за десять лет до событий оригинального «Звездного пути» и заполнит пробелы между знаменитой пилотной серией под названием "Клетка", которая стилистически отличается от шоу, и всеми любимым сериалом. Возможно, аудитория увидит, как Спок трансформируется из более человечного и расслабленного персонажа в рассудительного и безэмоционального вулканца. Пайк же встанет у руля корабля «Дискавери». Сначала команда недоверчиво отнесется к новому руководителю, но в конце концов поддастся его очарованию.


Возраст: 16+ (зрителям, достигшим 16 лет)

Продолжительность: ~00:44:00 серия
Качество видео: WEB-DLRip
Перевод: Многоголосый закадровый, профессиональный - LostFilm
Реклама: присутствуют заставка и логотип LostFilm

Видео: AVC/H.264, 1920х1080 (16:9), ~6800 kbps
Аудио #1: AC3, 2 ch, 384 Kbps - русский, многоголосый закадровый
Аудио #2: AC3, 2 ch, 384 Kbps - английский

Mediainfo:


General
Unique ID : 239666507336785656171497066580824858097 (0xB44E171EDC970F7BBBCB7FF32E949DF1)
Complete name : Z:\Фильмы\Serials\Star.Trek.Discovery.S02\Star.Trek.Discovery.S02E01.1080p.rus.LostFilm.TV.mkv
Format : Matroska
Format version : Version 4 / Version 2
File size : 3.26 GiB
Duration : 1 h 1 min
Overall bit rate : 7 570 kb/s
Encoded date : UTC 2019-01-19 21:48:41
Writing application : mkvmerge v7.7.0 ('Six Voices') 64bit built on Feb 28 2015 23:39:33
Writing library : libebml v1.3.1 + libmatroska v1.4.2

Video
ID : 1
Format : AVC
Format/Info : Advanced Video Codec
Format profile : High@L4.1
Format settings, CABAC : Yes
Format settings, RefFrames : 4 frames
Codec ID : V_MPEG4/ISO/AVC
Duration : 1 h 1 min
Bit rate : 6 800 kb/s
Width : 1 920 pixels
Height : 1 080 pixels
Display aspect ratio : 16:9
Frame rate mode : Constant
Frame rate : 24.000 FPS
Color space : YUV
Chroma subsampling : 4:2:0
Bit depth : 8 bits
Scan type : Progressive
Bits/(Pixel*Frame) : 0.137
Stream size : 2.93 GiB (90%)
Writing library : x264 core 112 r1834 a51816a
Encoding settings : cabac=1 / ref=4 / deblock=1:-3:-2 / analyse=0x3:0x113 / me=hex / subme=7 / psy=1 / psy_rd=1.00:0.00 / mixed_ref=1 / me_range=16 / chroma_me=1 / trellis=1 / 8x8dct=1 / cqm=0 / deadzone=21,11 / fast_pskip=1 / chroma_qp_offset=-2 / threads=6 / sliced_threads=0 / nr=0 / decimate=1 / interlaced=0 / constrained_intra=0 / bframes=5 / b_pyramid=2 / b_adapt=1 / b_bias=0 / direct=1 / weightb=1 / open_gop=0 / weightp=2 / keyint=250 / keyint_min=25 / scenecut=40 / intra_refresh=0 / rc_lookahead=40 / rc=2pass / mbtree=1 / bitrate=6800 / ratetol=1.0 / qcomp=0.60 / qpmin=0 / qpmax=51 / qpstep=4 / cplxblur=20.0 / qblur=0.5 / vbv_maxrate=10000 / vbv_bufsize=256000 / ip_ratio=1.40 / aq=1:1.00 / nal_hrd=none
Default : Yes
Forced : No

Audio #1
ID : 2
Format : AC-3
Format/Info : Audio Coding 3
Format settings, Endianness : Big
Codec ID : A_AC3
Duration : 1 h 1 min
Bit rate mode : Constant
Bit rate : 384 kb/s
Channel(s) : 2 channels
Channel positions : Front: L R
Sampling rate : 48.0 kHz
Frame rate : 31.250 FPS (1536 SPF)
Bit depth : 16 bits
Compression mode : Lossy
Stream size : 169 MiB (5%)
Service kind : Complete Main
Default : Yes
Forced : No

Audio #2
ID : 3
Format : AC-3
Format/Info : Audio Coding 3
Format settings, Endianness : Big
Codec ID : A_AC3
Duration : 1 h 1 min
Bit rate mode : Constant
Bit rate : 384 kb/s
Channel(s) : 2 channels
Channel positions : Front: L R
Sampling rate : 48.0 kHz
Frame rate : 31.250 FPS (1536 SPF)
Bit depth : 16 bits
Compression mode : Lossy
Stream size : 169 MiB (5%)
Service kind : Complete Main
Default : No
Forced : No

Список серий

Первая серия - Брат
Вторая серия - Новый Эдем
Третья серия - Точка света
Четвертая серия - Монетка для Харона
Пятая серия - Святые покровители несовершенства

Внимание! Раздача ведётся путём добавления новых серий

Внимание! Раздача ведётся путём добавления новых серий; при каждом добавлении создаётся новый торрент.
Чтобы начать докачку новой серии, пользователям необходимо сделать следующее:
1. Остановить скачивание;
2. Удалить старый торрент у себя из клиента (старые серии удалять не надо);
3. Скачать новый торрент и запустить его у себя в клиенте вместо старого, при этом указать клиенту путь в старую папку куда и должно происходить скачивание новых серий. Ваш клиент при этом должен произвести хеширование (проверку) старой папки и будет докачивать только те серии, которых у вас ещё нет. Старые серии при этом не удаляются, а продолжают раздаваться! Eсли вы уже удалили старые серии, то предотвратить повторную закачку старых серий можно, отжав галочку в соответствующих местах при запуске нового торрента.
Скриншоты:


Все одноименные релизы в Клубе

Смотреть Online


Детали торрента:
Название:Звездный путь: Дискавери / Star Trek: Discovery (2019) WEB-DLRip [H.264/1080p-LQ] (сезон 2, серии 1-5 из 14) LostFilm (обновляемая)
Дата добавления:17 Фев 2019 02:29:20
Размер:13,8 GB
Раздают:57
Качают:35
Форум:Звездный путь / Star Trek

All rights reserved © 2015-2019