TORRENTS45.XYZ

Скачать Шиттс Крик / Schitt's Creek (2019) WEBRip [H.264/1080p-LQ] (сезон 5, серии 1-5 из 13) TVShows (обновляемая)


Шиттс Крик / Schitt's Creek (2019) WEBRip [H.264/1080p-LQ] (сезон 5, серии 1-5 из 13) TVShows (обновляемая)
Производство: Канада, США / Canadian Broadcasting Corporation (CBC), Not A Real Company
Жанр: комедия

Режиссер: Пол Фокс, Джерри Чиккоритти, Т.У. Пикок
Актеры: Юджин ЛевиЮ Кэтрин О’Хара, Дэн Леви, Энни Мерфи, Крис Эллиот, Эмили Хэмпшир, Дженнифер Робертсон, Сара Леви, Дастин Миллиган, Карен Робинсон и др.

Описание:
Сериал рассказывает о семействе Роузов: Джонни Роуз — миллиардер, сделавший состояние на сети видеосалонов, его жена — актриса мыльных опер и двое детей — хипстер Дэвид и светская львица Алексис. После того, как бизнес Джонни терпит крах, все семейство вынуждено переехать жить в небольшую сельскую общину Шиттс Крик, которую они приобрели несколько лет назад развлечения ради.



Продолжительность: ~00:22:00 серия
Качество видео: WEBRip
Перевод: Многоголосый закадровый, любительский (TVShows)

Видео: AVC/H.264, 1920х1080 (16:9), ~5299 Kbps
Аудио 1: AC3, 6 ch, 384 kbps - русский, многоголосый закадровый
Аудио 2: AC3, 6 ch, 384 kbps - английский

Mediainfo:


General
Unique ID : 329938231939154885107949550185059641354 (0xF837CAC5085D0ED1ACA6E7EBECCEE80A)
Complete name : C:\Users\вов\Desktop\Schitts.Creek.S05.1080p.TVShows\Schitts.Creek.S05E01.1080p.TVShows.mkv
Format : Matroska
Format version : Version 4 / Version 2
File size : 950 MiB
Duration : 21 min 53 s
Overall bit rate : 6 069 kb/s
Encoded date : UTC 2019-01-21 16:31:07
Writing application : mkvmerge v29.0.0 ('Like It Or Not') 64-bit
Writing library : libebml v1.3.6 + libmatroska v1.4.9

Video
ID : 1
Format : AVC
Format/Info : Advanced Video Codec
Format profile : High@L4.1
Format settings : CABAC / 4 Ref Frames
Format settings, CABAC : Yes
Format settings, ReFrames : 4 frames
Codec ID : V_MPEG4/ISO/AVC
Duration : 21 min 53 s
Bit rate : 5 299 kb/s
Width : 1 920 pixels
Height : 1 080 pixels
Display aspect ratio : 16:9
Frame rate mode : Constant
Frame rate : 23.976 (24000/1001) FPS
Color space : YUV
Chroma subsampling : 4:2:0
Bit depth : 8 bits
Scan type : Progressive
Bits/(Pixel*Frame) : 0.107
Stream size : 830 MiB (87%)
Writing library : x264 core 157 r2935 545de2f
Encoding settings : cabac=1 / ref=4 / deblock=1:-3:-3 / analyse=0x3:0x113 / me=hex / subme=8 / psy=1 / psy_rd=1.00:0.15 / mixed_ref=1 / me_range=16 / chroma_me=1 / trellis=2 / 8x8dct=1 / cqm=0 / deadzone=21,11 / fast_pskip=1 / chroma_qp_offset=-2 / threads=34 / lookahead_threads=5 / sliced_threads=0 / nr=0 / decimate=1 / interlaced=0 / bluray_compat=0 / constrained_intra=0 / bframes=3 / b_pyramid=2 / b_adapt=2 / b_bias=0 / direct=3 / weightb=1 / open_gop=0 / weightp=2 / keyint=250 / keyint_min=23 / scenecut=40 / intra_refresh=0 / rc_lookahead=50 / rc=crf / mbtree=1 / crf=20.0 / qcomp=0.60 / qpmin=0 / qpmax=69 / qpstep=4 / ip_ratio=1.40 / aq=1:0.80
Language : English
Default : Yes
Forced : No
Color range : Limited
Matrix coefficients : BT.709

Audio #1
ID : 2
Format : AC-3
Format/Info : Audio Coding 3
Codec ID : A_AC3
Duration : 21 min 53 s
Bit rate mode : Constant
Bit rate : 384 kb/s
Channel(s) : 6 channels
Channel positions : Front: L C R, Side: L R, LFE
Sampling rate : 48.0 kHz
Frame rate : 31.250 FPS (1536 SPF)
Bit depth : 16 bits
Compression mode : Lossy
Stream size : 60.1 MiB (6%)
Title : TVShows
Language : Russian
Service kind : Complete Main
Default : Yes
Forced : Yes

Audio #2
ID : 3
Format : AC-3
Format/Info : Audio Coding 3
Codec ID : A_AC3
Duration : 21 min 53 s
Bit rate mode : Constant
Bit rate : 384 kb/s
Channel(s) : 6 channels
Channel positions : Front: L C R, Side: L R, LFE
Sampling rate : 48.0 kHz
Frame rate : 31.250 FPS (1536 SPF)
Bit depth : 16 bits
Compression mode : Lossy
Stream size : 60.1 MiB (6%)
Title : Original
Language : English
Service kind : Complete Main
Default : No
Forced : No

Внимание! Раздача ведётся путём добавления новых серий

Внимание! Раздача ведётся путём добавления новых серий; при каждом добавлении создаётся новый торрент.
Чтобы начать докачку новой серии, пользователям необходимо сделать следующее:
1. Остановить скачивание;
2. Удалить старый торрент у себя из клиента (старые серии удалять не надо);
3. Скачать новый торрент и запустить его у себя в клиенте вместо старого, при этом указать клиенту путь в старую папку куда и должно происходить скачивание новых серий. Ваш клиент при этом должен произвести хеширование (проверку) старой папки и будет докачивать только те серии, которых у вас ещё нет. Старые серии при этом не удаляются, а продолжают раздаваться! Eсли вы уже удалили старые серии, то предотвратить повторную закачку старых серий можно, отжав галочку в соответствующих местах при запуске нового торрента.
Скриншоты:


Все одноименные релизы в Клубе

Смотреть Online


Детали торрента:
Название:Шиттс Крик / Schitt's Creek (2019) WEBRip [H.264/1080p-LQ] (сезон 5, серии 1-5 из 13) TVShows (обновляемая)
Дата добавления:11 Фев 2019 10:44:39
Размер:4,9 GB
Раздают:2
Качают:0
Форум:Зарубежные сериалы

All rights reserved © 2015-2019