TORRENTS45.XYZ

Скачать Черный список / The Blacklist (2019) WEB-DLRip [H.264/1080p-LQ] (сезон 6, серии 1-6 из 16) TVShows (обновляемая)


Черный список / The Blacklist (2019) WEB-DLRip [H.264/1080p-LQ] (сезон 6, серии 1-6 из 16) TVShows (обновляемая)
Производство: США / Davis Entertainment, Universal Television, Sony Pictures Television
Жанр: триллер, драма, криминал, детектив

Режиссер: Билл Роу, Лин Одинг, Дэниел Уиллис
Актеры: Джеймс Спэйдер, Меган Бун, Кристофер Ламберт, Хишам Тафик, Фиона Дуриф, Кен Люн, Комал Чарания, Майкл Кейлоун, Хавьер Молина, Гари Перез и др.

Описание:
Шестой сезон популярного американского сериала «Черный список».
Один из главных героев этого сериала — Рэймонд Реддингтон, которого многие годы пытается поймать ФБР. Раньше этот загадочный человек работал на правительство, а затем оказался на другой стороне закона.
Однажды этот самый разыскиваемы преступник приходит в Бюро, чтобы сдаться. Его условия сотрудничества — работа исключительно с Элизабет Кин. Такое требование стало первой из большой череды загадок Реддингтона.


Возраст: 16+ (зрителям, достигшим 16 лет)

Продолжительность: ~00:43:00 серия
Качество видео: WEB-DLRip
Перевод: Многоголосый закадровый, любительский (TVShows)
Субтитры: английские

Видео: AVC/H.264, 1920х1080 (16:9), ~5257 Kbps
Аудио 1: AC3, 6 ch, 384 kbps - русский, многоголосый закадровый
Аудио 2: E-AC3, 6 ch, 640 kbps - английский

Mediainfo:


General
Unique ID : 149841313552716802166082840002358038339 (0x70BA6323FAAE9268D5D76471D9D64F43)
Complete name : C:\Users\вов\Desktop\The.Blacklist.S06.1080p.TVShows\The.Blacklist.S06E01.1080p.TVShows.mkv
Format : Matroska
Format version : Version 4 / Version 2
File size : 1.89 GiB
Duration : 43 min 0 s
Overall bit rate : 6 283 kb/s
Encoded date : UTC 2019-01-21 10:22:05
Writing application : mkvmerge v29.0.0 ('Like It Or Not') 64-bit
Writing library : libebml v1.3.6 + libmatroska v1.4.9

Video
ID : 1
Format : AVC
Format/Info : Advanced Video Codec
Format profile : High@L4
Format settings : CABAC / 4 Ref Frames
Format settings, CABAC : Yes
Format settings, ReFrames : 4 frames
Codec ID : V_MPEG4/ISO/AVC
Duration : 43 min 0 s
Bit rate : 5 257 kb/s
Width : 1 920 pixels
Height : 1 080 pixels
Display aspect ratio : 16:9
Frame rate mode : Constant
Frame rate : 23.976 (24000/1001) FPS
Color space : YUV
Chroma subsampling : 4:2:0
Bit depth : 8 bits
Scan type : Progressive
Bits/(Pixel*Frame) : 0.106
Stream size : 1.58 GiB (84%)
Default : Yes
Forced : No
Color range : Limited
Color primaries : BT.709
Transfer characteristics : BT.709
Matrix coefficients : BT.709

Audio #1
ID : 2
Format : AC-3
Format/Info : Audio Coding 3
Codec ID : A_AC3
Duration : 43 min 0 s
Bit rate mode : Constant
Bit rate : 384 kb/s
Channel(s) : 6 channels
Channel positions : Front: L C R, Side: L R, LFE
Sampling rate : 48.0 kHz
Frame rate : 31.250 FPS (1536 SPF)
Bit depth : 16 bits
Compression mode : Lossy
Stream size : 118 MiB (6%)
Title : TVShows
Language : Russian
Service kind : Complete Main
Default : Yes
Forced : Yes

Audio #2
ID : 3
Format : E-AC-3
Format/Info : Enhanced Audio Coding 3
Codec ID : A_EAC3
Duration : 43 min 0 s
Bit rate mode : Constant
Bit rate : 640 kb/s
Channel(s) : 6 channels
Channel positions : Front: L C R, Side: L R, LFE
Sampling rate : 48.0 kHz
Frame rate : 187.500 FPS (256 SPF)
Compression mode : Lossy
Stream size : 197 MiB (10%)
Title : Original
Language : English
Service kind : Complete Main
Default : No
Forced : No

Text
ID : 4
Format : UTF-8
Codec ID : S_TEXT/UTF8
Codec ID/Info : UTF-8 Plain Text
Duration : 42 min 16 s
Bit rate : 93 b/s
Count of elements : 918
Stream size : 28.9 KiB (0%)
Title : English
Language : English
Default : No
Forced : No

Внимание! Раздача ведётся путём добавления новых серий

Внимание! Раздача ведётся путём добавления новых серий; при каждом добавлении создаётся новый торрент.
Чтобы начать докачку новой серии, пользователям необходимо сделать следующее:
1. Остановить скачивание;
2. Удалить старый торрент у себя из клиента (старые серии удалять не надо);
3. Скачать новый торрент и запустить его у себя в клиенте вместо старого, при этом указать клиенту путь в старую папку куда и должно происходить скачивание новых серий. Ваш клиент при этом должен произвести хеширование (проверку) старой папки и будет докачивать только те серии, которых у вас ещё нет. Старые серии при этом не удаляются, а продолжают раздаваться! Eсли вы уже удалили старые серии, то предотвратить повторную закачку старых серий можно, отжав галочку в соответствующих местах при запуске нового торрента.
Скриншоты:


Все одноименные релизы в Клубе

Смотреть Online


Детали торрента:
Название:Черный список / The Blacklist (2019) WEB-DLRip [H.264/1080p-LQ] (сезон 6, серии 1-6 из 16) TVShows (обновляемая)
Дата добавления:19 Фев 2019 08:36:52
Размер:16,3 GB
Раздают:6
Качают:0
Форум:Зарубежные сериалы

All rights reserved © 2015-2019