TORRENTS45.XYZ

Скачать Хороший доктор / The Good Doctor (2018) WEB-DL [H.264/1080p-LQ] (сезон 2, серии 1-14 из 18) LostFilm (обновляемая)


Хороший доктор / The Good Doctor (2018) WEB-DL [H.264/1080p-LQ] (сезон 2, серии 1-14 из 18) LostFilm (обновляемая)
Производство: США / 3AD, ABC Studios, EnterMedia Contents
Жанр: драма

Режиссер: Майк Листо, Сет Гордон, Ларри Тенг
Актеры: Фредди Хаймор, Николас Гонсалес, Антония Томас, Тэмлин Томита, Хилл Харпер, Ричард Шифф, Чуку Моду, Бо Гарретт, Кристина Чанг, Терил Ротери и др.

Описание:
История молодого талантливого врача с синдромом саванта, обладающего уникальными способностями — невероятной памятью и фантастической чувствительностью к проблемам, вспыхивающим внутри человеческого организма. Герой становится блестящим хирургом, несмотря на это, в личностном плане его развитие соответствует уровню десятилетнего ребёнка...


Возраст: 16+ (зрителям, достигшим 16 лет)

Релиз от: itunestv

Продолжительность: ~00:43:00 серия
Качество видео: WEB-DL
Перевод: Многоголосый закадровый, профессиональный - LostFilm
Субтитры: русские, английские

Видео: AVC, 1920x1080 (16:9), ~9325 kbps
Аудио 1: E-AC3, 6 ch, 640 kbps — русский, многоголосый закадровый
Аудио 2: E-AC3, 6 ch, 640 kbps — английский

MediaInfo


General
Unique ID : 72824517858921804529743163421975553493 (0x36C97DF1499DD77AB6A2D7AAFE0EA5D5)
Complete name : The.Good.Doctor.S02E01.Hello.1080p.AMZN.WEB-DL.H.264.RUS.LF.DDP5.1.SRT-EniaHD.mkv
Format : Matroska
Format version : Version 4 / Version 2
File size : 3.19 GiB
Duration : 43 min 1 s
Overall bit rate : 10.6 Mb/s
Movie name : The Good Doctor, Season 2 / Hello
Track name/Position : 1
Track name/Total : null
Description : Shaun's proposed treatment for a homeless patient puts him and Jared in Andrews' crosshairs. Meanwhile, Claire tries to overcome Melendez's reluctance to do a risky heart operation while Glassman must overcome his personal feelings about his oncologist, Dr. Marina Blaize, and face a difficult decision about his health.
Released date : UTC 2018-09-25 02:00:00
Writing application : mkvmerge v30.1.0 ('Forever And More') 64-bit
Writing library : libebml v1.3.6 + libmatroska v1.4.9
Cover : Yes
Attachments : small_cover.jpg / cover.jpg

Video
ID : 1
Format : AVC
Format/Info : Advanced Video Codec
Format profile : High@L4
Format settings : CABAC / 4 Ref Frames
Format settings, CABAC : Yes
Format settings, RefFrames : 4 frames
Codec ID : V_MPEG4/ISO/AVC
Duration : 43 min 1 s
Bit rate : 9 325 kb/s
Width : 1 920 pixels
Height : 1 080 pixels
Display aspect ratio : 16:9
Frame rate mode : Constant
Frame rate : 23.976 (24000/1001) FPS
Color space : YUV
Chroma subsampling : 4:2:0
Bit depth : 8 bits
Scan type : Progressive
Bits/(Pixel*Frame) : 0.188
Stream size : 2.80 GiB (88%)
Language : English
Default : Yes
Forced : No
Color range : Limited
Color primaries : BT.709
Transfer characteristics : BT.709
Matrix coefficients : BT.709

Audio #1
ID : 2
Format : E-AC-3
Format/Info : Enhanced Audio Coding 3
Format settings, Endianness : Big
Codec ID : A_EAC3
Duration : 43 min 1 s
Bit rate mode : Constant
Bit rate : 640 kb/s
Channel(s) : 6 channels
Channel positions : Front: L C R, Side: L R, LFE
Sampling rate : 48.0 kHz
Frame rate : 187.500 FPS (256 SPF)
Compression mode : Lossy
Stream size : 197 MiB (6%)
Title : E-AC3 5.1 @ 640 kbps - MVO, LostFilm
Language : Russian
Service kind : Complete Main
Default : Yes
Forced : No
Released date : UTC 2018-09-26 18:07:37

Audio #2
ID : 3
Format : E-AC-3
Format/Info : Enhanced Audio Coding 3
Format settings, Endianness : Big
Codec ID : A_EAC3
Duration : 43 min 1 s
Bit rate mode : Constant
Bit rate : 640 kb/s
Channel(s) : 6 channels
Channel positions : Front: L C R, Side: L R, LFE
Sampling rate : 48.0 kHz
Frame rate : 187.500 FPS (256 SPF)
Compression mode : Lossy
Stream size : 197 MiB (6%)
Title : E-AC3 5.1 @ 640 kbps - Original
Language : English
Service kind : Complete Main
Default : No
Forced : No

Text #1
ID : 4
Format : UTF-8
Codec ID : S_TEXT/UTF8
Codec ID/Info : UTF-8 Plain Text
Duration : 42 min 30 s
Bit rate : 95 b/s
Count of elements : 537
Stream size : 29.9 KiB (0%)
Title : Amedia
Language : Russian
Default : No
Forced : No

Text #2
ID : 5
Format : UTF-8
Codec ID : S_TEXT/UTF8
Codec ID/Info : UTF-8 Plain Text
Duration : 42 min 43 s
Bit rate : 69 b/s
Count of elements : 819
Stream size : 21.8 KiB (0%)
Title : SDH
Language : English
Default : No
Forced : No

Список серий

01. Hello / Здравствуй
02. Middle Ground / Компромисс
03. 36 Hours / 36 часов
04. Tough Titmouse / Крепкий орешек
05. Carrots / Пряник
06. Two-Ply (or Not Two-Ply) / Двухслойная (или не двухслойная)
07. Hubert / Губерт
08. Stories / Истории
09. Empathy / Эмпатия
10. Quarantine / Карантин
11. Quarantine Part Two / Карантин. Часть вторая
12. Aftermath / Последствия
13. Xin / Всем сердцем
14. Faces / Лица

Дополнительная информация

"Чистый" кадр. Вступительная заставка и логотип LostFilm отсутствуют.
Работа со звуком itunestv@eniahd

Раздача ведётся путём добавления новых серий

Раздача ведётся путём добавления новых серий; при каждом добавлении создаётся новый торрент. Чтобы начать докачку новой серии, пользователям необходимо сделать следующее:
(1) остановить скачивание,
(2) удалить старый торрент у себя из клиента (старые серии удалять не надо),
(3) скачать новый торрент и запустить его у себя в клиенте вместо старого, при этом указать клиенту путь в старую папку куда и должно происходить скачивание новых серий.

Ваш клиент при этом должен произвести хеширование (проверку) старой папки (если не производит сам - помогите ему сделать это), и будет докачивать только те серии которых у вас ещё нет. Старые серии при этом не удаляются, а продолжают раздаваться!

Eсли вы уже удалили старые серии, то предотвратить повторную закачку старых серий можно, отжав галочку в соответствующих местах при запуске нового торрента. По возможности, желательно не удалять старые серии как можно дольше чтобы релизёр не столько продолжал раздавать старые серии, а смог сконцентрироваться на новых.
Скриншоты:



Все одноименные релизы в Клубе

Смотреть Online


Детали торрента:
Название:Хороший доктор / The Good Doctor (2018) WEB-DL [H.264/1080p-LQ] (сезон 2, серии 1-14 из 18) LostFilm (обновляемая)
Дата добавления:11 Фев 2019 03:43:52
Размер:36,1 GB
Раздают:3
Качают:1
Форум:Зарубежные сериалы

All rights reserved © 2015-2019