TORRENTS45.XYZ

Скачать Безымянный клинок / The Sword with No Name / Bool-kkott-cheo-reom na-bi-cheo-reom (2009) BDRip [H.264/720p] [MVO] [PR]


Безымянный клинок / The Sword with No Name / Bool-kkott-cheo-reom na-bi-cheo-reom (2009) BDRip [H.264/720p] [MVO]
Производство: Южная Корея / Showbox / Mediaplex, Sidus FNH
Жанр: Боевик, Драма

Режиссер: Ким Ён-гюн
Продюсер: Ким Ми-хи, Пак Мин-хи, Sujin Chung
Актеры: Чо Сын-у, Су-э, Софи Брусталь, Чхон Хо-джин, Чхве Джэ-ун, Ким Ён-мин, Пак Мин-хи, Ко Су-хи, Hee-yeon Song, Ли Ён-нё

Описание:
Действие фильма происходит в конце XIX века, когда Корея вынуждена встать перед выбором сохранения традиций или проведения реформ, большей открытости иностранным державам. На влияние в этой стране претендуют такие могущественные и противостоящие друг другу государства как Япония с одной стороны, и Россия — с другой. Параллельно властями в стране преследуются католики, вынужденные скрываться и вести борьбу за выживание, иногда и террористическими методами в ответ на казни и лишения. Интриги и заговоры преследуют королевский двор и аристократию, а от покушений не застрахован никто.



Продолжительность: 02:03:35
Качество видео: BDRip
Перевод: Любительский двухголосый
Субтитры: английские

Видео: AVC/H.264, 1280x696, ~6081 Kbps
Аудио #1: AC3, 6 ch, 448 Kbps - Русский
Аудио #2: DTS, 6 ch, 1509 Kbps - Корейский

Mediainfo:


Общее
Уникальный идентификатор : 245877886861539711706980109856126575941 (0xB8FA5BC6746C743DA18FD22F5A70A545)
Полное имя : F:\torrents\The Sword with No Name.2009.720p.mkv
Формат : Matroska
Версия формата : Version 2
Размер файла : 6,94 Гбайт
Продолжительность : 2 ч. 3 м.
Общий поток : 8039 Кбит/сек
Название фильма : The.Sword.With.No.Name.2009.720p.Bluray.x264-QSP
Дата кодирования : UTC 2011-02-16 14:41:48
Программа кодирования : mkvmerge v3.2.0 ('Beginnings') built on Feb 12 2010 16:46:17
Библиотека кодирования : libebml v0.7.9 + libmatroska v0.8.1

Видео
Идентификатор : 1
Формат : AVC
Формат/Информация : Advanced Video Codec
Профиль формата : High@L4.1
Настройки формата : CABAC / 5 Ref Frames
Параметр CABAC формата : Да
Параметр RefFrames формата : 5 кадров
Идентификатор кодека : V_MPEG4/ISO/AVC
Продолжительность : 2 ч. 3 м.
Битрейт : 6081 Кбит/сек
Ширина : 1280 пикселей
Высота : 696 пикселей
Соотношение сторон : 1,85:1
Режим частоты кадров : Постоянный
Частота кадров : 23,976 (24000/1001) кадра/сек
Цветовое пространство : YUV
Субдискретизация насыщенности : 4:2:0
Битовая глубина : 8 бит
Тип развёртки : Прогрессивная
Бит/(Пиксели*Кадры) : 0.285
Размер потока : 5,11 Гбайт (74%)
Заголовок : uralmix
Библиотека кодирования : x264 core 105 r1732 2b04482
Настройки программы : cabac=1 / ref=5 / deblock=1:-1:-1 / analyse=0x3:0x133 / me=umh / subme=7 / psy=1 / psy_rd=1.00:0.15 / mixed_ref=1 / me_range=16 / chroma_me=1 / trellis=1 / 8x8dct=1 / cqm=0 / deadzone=21,11 / fast_pskip=0 / chroma_qp_offset=-3 / threads=6 / sliced_threads=0 / nr=0 / decimate=1 / interlaced=0 / constrained_intra=0 / bframes=3 / b_pyramid=2 / b_adapt=1 / b_bias=0 / direct=1 / weightb=1 / open_gop=0 / weightp=2 / keyint=250 / keyint_min=23 / scenecut=40 / intra_refresh=0 / rc_lookahead=40 / rc=2pass / mbtree=1 / bitrate=6081 / ratetol=1.0 / qcomp=0.60 / qpmin=10 / qpmax=51 / qpstep=4 / cplxblur=20.0 / qblur=0.5 / ip_ratio=1.40 / aq=1:1.00
Язык : English
Default : Нет
Forced : Нет

Аудио #1
Идентификатор : 2
Формат : AC-3
Формат/Информация : Audio Coding 3
Коммерческое название : Dolby Digital
Идентификатор кодека : A_AC3
Продолжительность : 2 ч. 3 м.
Вид битрейта : Постоянный
Битрейт : 448 Кбит/сек
Каналы : 6 каналов
Channel layout : L R C LFE Ls Rs
Частота : 48,0 КГц
Частота кадров : 31,250 кадров/сек (1536 SPF)
Битовая глубина : 16 бит
Метод сжатия : С потерями
Размер потока : 396 Мбайт (6%)
Заголовок : любительский двухголосый
Язык : Russian
ServiceKind/String : Complete Main
Default : Да
Forced : Нет

Аудио #2
Идентификатор : 3
Формат : DTS
Формат/Информация : Digital Theater Systems
Идентификатор кодека : A_DTS
Продолжительность : 2 ч. 3 м.
Вид битрейта : Постоянный
Битрейт : 1509 Кбит/сек
Каналы : 6 каналов
Channel layout : C L R Ls Rs LFE
Частота : 48,0 КГц
Частота кадров : 93,750 кадра/сек (512 SPF)
Битовая глубина : 16 бит
Метод сжатия : С потерями
Размер потока : 1,30 Гбайт (19%)
Язык : Korean
Default : Нет
Forced : Нет

Текст
Идентификатор : 4
Формат : UTF-8
Идентификатор кодека : S_TEXT/UTF8
Идентификатор кодека/Информация : UTF-8 Plain Text
Язык : English
Default : Да
Forced : Нет
Скриншоты:

Дополнительные скриншоты:









Все одноименные релизы в Клубе
Детали торрента:
Название:Безымянный клинок / The Sword with No Name / Bool-kkott-cheo-reom na-bi-cheo-reom (2009) BDRip [H.264/720p] [MVO] [PR]
Дата добавления:11 Янв 2019 15:47:27
Размер:6,94 GB
Раздают:19
Качают:2
Форум:Азиатское кино (HD*Rip/LQ, DVDRip, SATRip, VHSRip)

All rights reserved © 2015-2019