TORRENTS45.XYZ

Скачать Проект засекречен / Проект "Синяя книга" / Project Blue Book (2019) WEBRip (сезон 1, серии 1 из 10) BaibaKo (обновляемая) [AD]


Проект засекречен / Проект "Синяя книга" / Project Blue Book (2019) WEBRip (сезон 1, серии 1 из 10)
Производство: США / A+E Studios, History Channel
Жанр: детектив, история

Режиссер: Роберт Стромберг, Пит Трэвис, Норма Бэйли
Актеры: Эйдан Гиллен, Майкл Маларки, Лаура Меннелл, Ксения Соло, Майкл Харни, Нил МакДонаф, Роберт Джон Бёрк и др.

Описание:
Сюжет отправляет зрителей в пятидесятые годы прошлого века. В центре внимания сюжета оказывается астроном Джон Аллен Хинек, который вместе с капитаном военно-воздушных сил Соединенных Штатов Америки Майклом Квинном занимается расследованием странных документов, свидетельствующих о появлении в небе неопознанных летающих объектов. Неужели все истории об инопланетянах правда? Или же это чья-то хитрая игра? Главные герои в ходе расследования выходят на людей из правительства, между которыми сложились доверительные отношения. Кажется, именно они устроили заговор, введший многих в заблуждение. Но какова правда?


Дата мировой премьеры: 8 января 2019

Продолжительность: ~00:44:00 серия
Качество видео: WEBRip
Перевод: Многоголосый закадровый, профессиональный - BaibaKo
Реклама: присутствуют видео и аудио вставки рекламы

Видео: Xvid, 720x360, ~1498 Kbps
Аудио 1: MP3, 2 ch, 192 Kbps, CBR | русский, многоголосый закадровый
Аудио 2: MP3, 2 ch, 192 Kbps, CBR | английский

Mediainfo:


Общее
Полное имя : \\\Project.Blue.Book.s01e01.WEBRip.XviD.Rus.Eng.BaibaKo.tv.avi
Формат : AVI
Формат/Информация : Audio Video Interleave
Размер файла : 608 Мбайт
Продолжительность : 45 м. 1 с.
Общий поток : 1889 Кбит/сек

Видео
Идентификатор : 0
Формат : MPEG-4 Visual
Профиль формата : Advanced Simple@L5
Настройки формата : BVOP2
Параметр BVOP формата : 2
Параметр QPel формата : Нет
Параметр GMC формата : Без точки перехода
Параметр матрицы формата : Default (H.263)
Идентификатор кодека : XVID
Идентификатор кодека/Подсказка : XviD
Продолжительность : 45 м. 1 с.
Битрейт : 1498 Кбит/сек
Ширина : 720 пикселей
Высота : 360 пикселей
Соотношение сторон : 2,000
Частота кадров : 23,976 (24000/1001) кадра/сек
Цветовое пространство : YUV
Субдискретизация насыщенности : 4:2:0
Битовая глубина : 8 бит
Тип развёртки : Прогрессивная
Метод сжатия : С потерями
Бит/(Пиксели*Кадры) : 0.241
Размер потока : 482 Мбайт (79%)
Библиотека кодирования : XviD 67

Аудио #1
Идентификатор : 1
Формат : MPEG Audio
Версия формата : Version 1
Профиль формата : Layer 3
Настройки формата : Joint stereo / MS Stereo
Идентификатор кодека : 55
Идентификатор кодека/Подсказка : MP3
Продолжительность : 45 м. 1 с.
Вид битрейта : Постоянный
Битрейт : 192 Кбит/сек
Каналы : 2 канала
Частота : 48,0 КГц
Частота кадров : 41,667 кадра/сек (1152 SPF)
Метод сжатия : С потерями
Размер потока : 61,8 Мбайт (10%)
Выравнивание : Соединение по промежуткам
Продолжительность промежутка : 167 мс. (4,00 видеокадра)
Время предзагрузки промежутка : 216 мс.
Заголовок : Project.Blue.Book.s01e01.HD1080p.WEBRip.Rus.Eng.BaibaKo.tv - [1][0] Russian_audio
Библиотека кодирования : LAME3.100
Настройки программы : -m j -V 4 -q 2 -lowpass 18.6 -b 192

Аудио #2
Идентификатор : 2
Формат : MPEG Audio
Версия формата : Version 1
Профиль формата : Layer 3
Настройки формата : Joint stereo / MS Stereo
Идентификатор кодека : 55
Идентификатор кодека/Подсказка : MP3
Продолжительность : 45 м. 1 с.
Вид битрейта : Постоянный
Битрейт : 192 Кбит/сек
Каналы : 2 канала
Частота : 48,0 КГц
Частота кадров : 41,667 кадра/сек (1152 SPF)
Метод сжатия : С потерями
Размер потока : 61,8 Мбайт (10%)
Выравнивание : Соединение по промежуткам
Продолжительность промежутка : 167 мс. (4,00 видеокадра)
Время предзагрузки промежутка : 216 мс.
Заголовок : Project.Blue.Book.s01e01.HD1080p.WEBRip.Rus.Eng.BaibaKo.tv - [2][1] English_audio
Библиотека кодирования : LAME3.100
Настройки программы : -m j -V 4 -q 2 -lowpass 18.6 -b 192

Внимание! Раздача ведётся путём добавления новых серий

Внимание! Раздача ведётся путём добавления новых серий; при каждом добавлении создаётся новый торрент.
Чтобы начать докачку новой серии, пользователям необходимо сделать следующее:
1. Остановить скачивание;
2. Удалить старый торрент у себя из клиента (старые серии удалять не надо);
3. Скачать новый торрент и запустить его у себя в клиенте вместо старого, при этом указать клиенту путь в старую папку куда и должно происходить скачивание новых серий. Ваш клиент при этом должен произвести хеширование (проверку) старой папки и будет докачивать только те серии, которых у вас ещё нет. Старые серии при этом не удаляются, а продолжают раздаваться! Eсли вы уже удалили старые серии, то предотвратить повторную закачку старых серий можно, отжав галочку в соответствующих местах при запуске нового торрента.
Скриншоты:


Все одноименные релизы в Клубе

Смотреть Online

Детали торрента:
Название:Проект засекречен / Проект "Синяя книга" / Project Blue Book (2019) WEBRip (сезон 1, серии 1 из 10) BaibaKo (обновляемая) [AD]
Дата добавления:11 Янв 2019 15:45:44
Размер:608 MB
Раздают:27
Качают:5
Форум:Зарубежные сериалы

All rights reserved © 2015-2019