TORRENTS45.XYZ

Скачать Обвиняемые / The Accused (1988) WEB-DLRip [H.264] [Open Matte]


Обвиняемые / The Accused (1988) WEB-DLRip [H.264] [Open Matte]
Производство: США, Канада / Paramount Pictures, Jaffe-Lansing
Жанр: Драма, криминал

Режиссер: Джонатан Каплан
Актеры: Келли МакГиллис, Джоди Фостер, Берни Колсон, Лео Росси, Энн Хирн, Кармен Ардженциано, Стив Энтин, Том О`Брайен, Питер Ван Норден, Терри Дэвид Маллиган

Описание:
Героиня этого фильма, Сара Тобиас, рассказывает свою ужасную историю прокурору Кэтрин Мерфи. Сара была безжалостно изнасилована тремя мужчинами в баре. Однако преступников приговаривают лишь к небольшому сроку за хулиганство.
Такое решение суда было основано на заключении следствия, в котором утверждалось, что Сара сама спровоцировала обвиняемых на насилие. По просьбе девушки, Мерфи начинает заново расследовать обстоятельства этого странного дела. Теперь прокурору предстоит выяснить: что же в действительности произошло тем страшным вечером в баре?
Фильм основан на реальных событиях.


Возраст: 16+ (зрителям, достигшим 16 лет)
Рейтинг MPAA: R (лицам до 17 лет обязательно присутствие взрослого)
Награды и номинации

Релиз от: Torrents45.xyz
Продолжительность: 01:50:30
Качество видео: WEB-DLRip (AVC)
Перевод: Профессиональный многоголосый, профессиональный двухголосый, авторский
Субтитры: Английские (Full, SDH), французские (Full), немецкие (Full)

Видео: AVC/H.264, 1024x576, ~2180 Kbps
Аудио #1: AC3, 2 ch, 224 Kbps - Русский духголосый (НТВ+)
Аудио #2: AC3, 2 ch, 192 Kbps - Русский духголосый (R5)
Аудио #3: AC3, 2 ch, 192 Kbps - Русский многоголосый (СТС)
Аудио #4: AC3, 2 ch, 192 Kbps - Авторский (Андрей Гаврилов)
Аудио #5: AC3, 6 ch, 384 Kbps - Английский, оригинал

MediaInfo:


Общее
Уникальный идентификатор : 176502296128968486487531103946178717608 (0x84C91B1190F009BB9F4A4A147DC667A8)
Полное имя : E:\NNM\Обвиняемые\The Accused 1988 WEB-DLRip-AVC torrents45.xyzv
Формат : Matroska
Версия формата : Version 4 / Version 2
Размер файла : 2,60 Гбайт
Продолжительность : 1 ч. 50 м.
Общий поток : 3365 Кбит/сек
Название фильма : For torrents45.xyz />Дата кодирования : UTC 2019-01-11 08:39:13
Программа кодирования : mkvmerge v6.9.1 ('Blue Panther') 32bit built on Apr 18 2014 18:15:44
Библиотека кодирования : libebml v1.3.0 + libmatroska v1.4.1

Видео
Идентификатор : 1
Формат : AVC
Формат/Информация : Advanced Video Codec
Профиль формата : High@L4.1
Настройки формата : CABAC / 12 Ref Frames
Параметр CABAC формата : Да
Параметр RefFrames формата : 12 кадров
Идентификатор кодека : V_MPEG4/ISO/AVC
Продолжительность : 1 ч. 50 м.
Битрейт : 2180 Кбит/сек
Ширина : 1024 пикселя
Высота : 576 пикселей
Соотношение сторон : 16:9
Режим частоты кадров : Постоянный
Частота кадров : 23,976 (23976/1000) кадра/сек
Цветовое пространство : YUV
Субдискретизация насыщенности : 4:2:0
Битовая глубина : 8 бит
Тип развёртки : Прогрессивная
Бит/(Пиксели*Кадры) : 0.154
Размер потока : 1,63 Гбайт (63%)
Библиотека кодирования : x264 core 146 r2538 121396c
Настройки программы : cabac=1 / ref=12 / deblock=1:-3:-3 / analyse=0x3:0x113 / me=umh / subme=11 / psy=1 / psy_rd=1.00:0.15 / mixed_ref=1 / me_range=32 / chroma_me=1 / trellis=2 / 8x8dct=1 / cqm=0 / deadzone=21,11 / fast_pskip=0 / chroma_qp_offset=-3 / threads=12 / lookahead_threads=2 / sliced_threads=0 / nr=0 / decimate=0 / interlaced=0 / bluray_compat=0 / constrained_intra=0 / bframes=10 / b_pyramid=2 / b_adapt=2 / b_bias=0 / direct=1 / weightb=1 / open_gop=0 / weightp=2 / keyint=240 / keyint_min=23 / scenecut=40 / intra_refresh=0 / rc_lookahead=40 / rc=2pass / mbtree=0 / bitrate=2180 / ratetol=1.0 / qcomp=0.60 / qpmin=0 / qpmax=69 / qpstep=4 / cplxblur=20.0 / qblur=0.5 / vbv_maxrate=50000 / vbv_bufsize=62500 / nal_hrd=none / filler=0 / ip_ratio=1.40 / pb_ratio=1.30 / aq=1:0.90
Default : Да
Forced : Нет

Аудио #1
Идентификатор : 2
Формат : AC-3
Формат/Информация : Audio Coding 3
Идентификатор кодека : A_AC3
Продолжительность : 1 ч. 50 м.
Вид битрейта : Постоянный
Битрейт : 224 Кбит/сек
Каналы : 2 канала
Расположение каналов : Front: L R
Частота : 48,0 КГц
Частота кадров : 31,250 кадров/сек (1536 SPF)
Битовая глубина : 16 бит
Метод сжатия : С потерями
Размер потока : 177 Мбайт (7%)
Заголовок : DVO | НТВ+
Язык : Russian
ServiceKind/String : Complete Main
Default : Да
Forced : Нет

Аудио #2
Идентификатор : 3
Формат : AC-3
Формат/Информация : Audio Coding 3
Идентификатор кодека : A_AC3
Продолжительность : 1 ч. 50 м.
Вид битрейта : Постоянный
Битрейт : 192 Кбит/сек
Каналы : 2 канала
Расположение каналов : Front: L R
Частота : 48,0 КГц
Частота кадров : 31,250 кадров/сек (1536 SPF)
Битовая глубина : 16 бит
Метод сжатия : С потерями
Размер потока : 152 Мбайт (6%)
Заголовок : DVO | R5
Язык : Russian
ServiceKind/String : Complete Main
Default : Нет
Forced : Нет

Аудио #3
Идентификатор : 4
Формат : AC-3
Формат/Информация : Audio Coding 3
Идентификатор кодека : A_AC3
Продолжительность : 1 ч. 50 м.
Вид битрейта : Постоянный
Битрейт : 192 Кбит/сек
Каналы : 2 канала
Расположение каналов : Front: L R
Частота : 48,0 КГц
Частота кадров : 31,250 кадров/сек (1536 SPF)
Битовая глубина : 16 бит
Метод сжатия : С потерями
Размер потока : 152 Мбайт (6%)
Заголовок : MVO | СТС
Язык : Russian
ServiceKind/String : Complete Main
Default : Нет
Forced : Нет

Аудио #4
Идентификатор : 5
Формат : AC-3
Формат/Информация : Audio Coding 3
Идентификатор кодека : A_AC3
Продолжительность : 1 ч. 50 м.
Вид битрейта : Постоянный
Битрейт : 192 Кбит/сек
Каналы : 2 канала
Расположение каналов : Front: L R
Частота : 48,0 КГц
Частота кадров : 31,250 кадров/сек (1536 SPF)
Битовая глубина : 16 бит
Метод сжатия : С потерями
Размер потока : 152 Мбайт (6%)
Заголовок : AVO | А. Гаврилов
Язык : Russian
ServiceKind/String : Complete Main
Default : Нет
Forced : Нет

Аудио #5
Идентификатор : 6
Формат : AC-3
Формат/Информация : Audio Coding 3
Идентификатор кодека : A_AC3
Продолжительность : 1 ч. 50 м.
Вид битрейта : Постоянный
Битрейт : 384 Кбит/сек
Каналы : 6 каналов
Расположение каналов : Front: L C R, Side: L R, LFE
Частота : 48,0 КГц
Частота кадров : 31,250 кадров/сек (1536 SPF)
Битовая глубина : 16 бит
Метод сжатия : С потерями
Размер потока : 304 Мбайт (11%)
Заголовок : Original
Язык : English
ServiceKind/String : Complete Main
Default : Нет
Forced : Нет

Текст #1
Идентификатор : 7
Формат : UTF-8
Идентификатор кодека : S_TEXT/UTF8
Идентификатор кодека/Информация : UTF-8 Plain Text
Язык : English
Default : Нет
Forced : Нет

Текст #2
Идентификатор : 8
Формат : UTF-8
Идентификатор кодека : S_TEXT/UTF8
Идентификатор кодека/Информация : UTF-8 Plain Text
Заголовок : SDH
Язык : English
Default : Нет
Forced : Нет

Текст #3
Идентификатор : 9
Формат : UTF-8
Идентификатор кодека : S_TEXT/UTF8
Идентификатор кодека/Информация : UTF-8 Plain Text
Язык : French
Default : Нет
Forced : Нет

Текст #4
Идентификатор : 10
Формат : UTF-8
Идентификатор кодека : S_TEXT/UTF8
Идентификатор кодека/Информация : UTF-8 Plain Text
Язык : German
Default : Нет
Forced : Нет

Меню
00:00:00.000 : en:Cry For Help
00:03:01.000 : en:Aftermath
00:15:35.000 : en:An Ugly Case
00:26:39.000 : en:Reckless Endangerment
00:32:08.000 : en:A Change
00:34:53.000 : en:Scorpion
00:42:17.000 : en:I Owe Her
00:49:26.000 : en:No Secrets
00:55:53.000 : en:The Emergency Caller
01:01:49.000 : en:Trial
01:14:48.000 : en:I Don't Want To Lie
01:33:32.000 : en:Summation
01:41:28.000 : en:The Tenth House
01:43:41.000 : en:Decision
Скриншоты:


Все одноименные релизы в Клубе

Смотреть Online

Детали торрента:
Название:Обвиняемые / The Accused (1988) WEB-DLRip [H.264] [Open Matte]
Дата добавления:11 Янв 2019 13:32:07
Размер:2,6 GB
Раздают:2
Качают:2
Форум:Старые Зарубежные Фильмы (HD*Rip/LQ, DVDRip, SATRip, VHSRip)

All rights reserved © 2015-2019