TORRENTS45.XYZ

Скачать Обвиняемые / The Accused (1988) WEB-DL [H.264/1080p] [Open Matte]


Обвиняемые / The Accused (1988) WEB-DL [H.264/1080p] [Open Matte]
Производство: США, Канада / Paramount Pictures, Jaffe-Lansing
Жанр: Драма, криминал

Режиссер: Джонатан Каплан
Актеры: Келли МакГиллис, Джоди Фостер, Берни Колсон, Лео Росси, Энн Хирн, Кармен Ардженциано, Стив Энтин, Том О`Брайен, Питер Ван Норден, Терри Дэвид Маллиган

Описание:
Героиня этого фильма, Сара Тобиас, рассказывает свою ужасную историю прокурору Кэтрин Мерфи. Сара была безжалостно изнасилована тремя мужчинами в баре. Однако преступников приговаривают лишь к небольшому сроку за хулиганство.
Такое решение суда было основано на заключении следствия, в котором утверждалось, что Сара сама спровоцировала обвиняемых на насилие. По просьбе девушки, Мерфи начинает заново расследовать обстоятельства этого странного дела. Теперь прокурору предстоит выяснить: что же в действительности произошло тем страшным вечером в баре?
Фильм основан на реальных событиях.


Возраст: 16+ (зрителям, достигшим 16 лет)
Рейтинг MPAA: R (лицам до 17 лет обязательно присутствие взрослого)
Награды и номинации

Продолжительность: 01:50:30
Качество видео: WEB-DL (1080p)
Перевод: Профессиональный многоголосый, профессиональный двухголосый, авторский
Субтитры: Английские (Full, SDH), финские (Full), португальские (Full), французские (Full), немецкие (Full), итальянские (Full), испанские (Full), шведские (Full)

Видео: AVC/H.264, 1920x1080, ~14,2 Mbps
Аудио #1: AC3, 2 ch, 224 Kbps - Русский духголосый (НТВ+)
Аудио #2: AC3, 2 ch, 192 Kbps - Русский духголосый (R5)
Аудио #1: AC3, 2 ch, 192 Kbps - Русский многоголосый (СТС)
Аудио #2: AC3, 2 ch, 192 Kbps - Авторский (Андрей Гаврилов)
Аудио #1: AC3, 6 ch, 640 Kbps - Английский, оригинал
Аудио #2: AC3, 2 ch, 192 Kbps - Немецкий, профессиональный (дублированный)

MediaInfo:


Общее
Уникальный идентификатор : 239976713053934785150788377176827641713 (0xB489D571778FEDA0A72338F2F10E3F71)
Полное имя : E:\NNM\Обвиняемые\The Accused 1988 WEB-DL 1080p.mkv
Формат : Matroska
Версия формата : Version 2
Размер файла : 12,5 Гбайт
Продолжительность : 1 ч. 50 м.
Режим общего битрейта : Переменный
Общий поток : 16,2 Мбит/сек
Дата кодирования : UTC 2018-05-01 21:15:43
Программа кодирования : mkvmerge v5.8.0 ('No Sleep / Pillow') built on Sep 2 2012 15:37:04
Библиотека кодирования : libebml v1.2.3 + libmatroska v1.3.0

Видео
Идентификатор : 1
Формат : AVC
Формат/Информация : Advanced Video Codec
Профиль формата : High@L4
Настройки формата : CABAC / 4 Ref Frames
Параметр CABAC формата : Да
Параметр RefFrames формата : 4 кадра
Идентификатор кодека : V_MPEG4/ISO/AVC
Продолжительность : 1 ч. 50 м.
Вид битрейта : Переменный
Битрейт : 14,2 Мбит/сек
Максимальный битрейт : 15,0 Мбит/сек
Ширина : 1920 пикселей
Высота : 1080 пикселей
Соотношение сторон : 16:9
Режим частоты кадров : Постоянный
Частота кадров : 23,976 (24000/1001) кадра/сек
Цветовое пространство : YUV
Субдискретизация насыщенности : 4:2:0
Битовая глубина : 8 бит
Тип развёртки : Прогрессивная
Бит/(Пиксели*Кадры) : 0.286
Размер потока : 11,0 Гбайт (88%)
Библиотека кодирования : x264 core 148 r2623 d5b2374
Настройки программы : cabac=1 / ref=4 / deblock=1:-1:-1 / analyse=0x3:0x133 / me=umh / subme=9 / psy=1 / psy_rd=1.00:0.15 / mixed_ref=1 / me_range=24 / chroma_me=1 / trellis=2 / 8x8dct=1 / cqm=0 / deadzone=21,11 / fast_pskip=1 / chroma_qp_offset=-3 / threads=34 / lookahead_threads=5 / sliced_threads=0 / nr=150 / decimate=1 / interlaced=0 / bluray_compat=0 / constrained_intra=0 / bframes=8 / b_pyramid=2 / b_adapt=2 / b_bias=0 / direct=3 / weightb=1 / open_gop=0 / weightp=2 / keyint=120 / keyint_min=61 / scenecut=0 / intra_refresh=0 / rc_lookahead=120 / rc=crf / mbtree=1 / crf=18.0 / qcomp=0.60 / qpmin=0 / qpmax=69 / qpstep=4 / vbv_maxrate=15000 / vbv_bufsize=31250 / crf_max=0.0 / nal_hrd=vbr / filler=0 / ip_ratio=1.40 / aq=3:1.00
Язык : English
Default : Да
Forced : Нет
Цветовой диапазон : Limited
Основные цвета : BT.709
Характеристики трансфера : BT.709
Коэффициенты матрицы : BT.709

Аудио #1
Идентификатор : 2
Формат : AC-3
Формат/Информация : Audio Coding 3
Идентификатор кодека : A_AC3
Продолжительность : 1 ч. 50 м.
Вид битрейта : Постоянный
Битрейт : 224 Кбит/сек
Каналы : 2 канала
Расположение каналов : Front: L R
Частота : 48,0 КГц
Частота кадров : 31,250 кадров/сек (1536 SPF)
Битовая глубина : 16 бит
Метод сжатия : С потерями
Размер потока : 177 Мбайт (1%)
Заголовок : DVO | НТВ+
Язык : Russian
ServiceKind/String : Complete Main
Default : Да
Forced : Нет

Аудио #2
Идентификатор : 3
Формат : AC-3
Формат/Информация : Audio Coding 3
Идентификатор кодека : A_AC3
Продолжительность : 1 ч. 50 м.
Вид битрейта : Постоянный
Битрейт : 192 Кбит/сек
Каналы : 2 канала
Расположение каналов : Front: L R
Частота : 48,0 КГц
Частота кадров : 31,250 кадров/сек (1536 SPF)
Битовая глубина : 16 бит
Метод сжатия : С потерями
Размер потока : 152 Мбайт (1%)
Заголовок : DVO | R5
Язык : Russian
ServiceKind/String : Complete Main
Default : Нет
Forced : Нет

Аудио #3
Идентификатор : 4
Формат : AC-3
Формат/Информация : Audio Coding 3
Идентификатор кодека : A_AC3
Продолжительность : 1 ч. 50 м.
Вид битрейта : Постоянный
Битрейт : 192 Кбит/сек
Каналы : 2 канала
Расположение каналов : Front: L R
Частота : 48,0 КГц
Частота кадров : 31,250 кадров/сек (1536 SPF)
Битовая глубина : 16 бит
Метод сжатия : С потерями
Размер потока : 152 Мбайт (1%)
Заголовок : MVO | СТС
Язык : Russian
ServiceKind/String : Complete Main
Default : Нет
Forced : Нет

Аудио #4
Идентификатор : 5
Формат : AC-3
Формат/Информация : Audio Coding 3
Идентификатор кодека : A_AC3
Продолжительность : 1 ч. 50 м.
Вид битрейта : Постоянный
Битрейт : 192 Кбит/сек
Каналы : 2 канала
Расположение каналов : Front: L R
Частота : 48,0 КГц
Частота кадров : 31,250 кадров/сек (1536 SPF)
Битовая глубина : 16 бит
Метод сжатия : С потерями
Размер потока : 152 Мбайт (1%)
Заголовок : AVO | А. Гаврилов
Язык : Russian
ServiceKind/String : Complete Main
Default : Нет
Forced : Нет

Аудио #5
Идентификатор : 6
Формат : E-AC-3
Формат/Информация : Enhanced Audio Coding 3
Идентификатор кодека : A_EAC3
Продолжительность : 1 ч. 50 м.
Вид битрейта : Постоянный
Битрейт : 640 Кбит/сек
Каналы : 6 каналов
Расположение каналов : Front: L C R, Side: L R, LFE
Частота : 48,0 КГц
Частота кадров : 187,500 кадров/сек (256 SPF)
Метод сжатия : С потерями
Размер потока : 506 Мбайт (4%)
Заголовок : Original
Язык : English
ServiceKind/String : Complete Main
Default : Нет
Forced : Нет

Аудио #6
Идентификатор : 7
Формат : AC-3
Формат/Информация : Audio Coding 3
Идентификатор кодека : A_AC3
Продолжительность : 1 ч. 50 м.
Вид битрейта : Постоянный
Битрейт : 192 Кбит/сек
Каналы : 2 канала
Расположение каналов : Front: L R
Частота : 48,0 КГц
Частота кадров : 31,250 кадров/сек (1536 SPF)
Битовая глубина : 16 бит
Метод сжатия : С потерями
Размер потока : 152 Мбайт (1%)
Заголовок : DUB
Язык : German
ServiceKind/String : Complete Main
Default : Нет
Forced : Нет

Текст #1
Идентификатор : 8
Формат : UTF-8
Идентификатор кодека : S_TEXT/UTF8
Идентификатор кодека/Информация : UTF-8 Plain Text
Язык : English
Default : Нет
Forced : Нет

Текст #2
Идентификатор : 9
Формат : UTF-8
Идентификатор кодека : S_TEXT/UTF8
Идентификатор кодека/Информация : UTF-8 Plain Text
Заголовок : SDH
Язык : English
Default : Нет
Forced : Нет

Текст #3
Идентификатор : 10
Формат : UTF-8
Идентификатор кодека : S_TEXT/UTF8
Идентификатор кодека/Информация : UTF-8 Plain Text
Язык : Finnish
Default : Нет
Forced : Нет

Текст #4
Идентификатор : 11
Формат : UTF-8
Идентификатор кодека : S_TEXT/UTF8
Идентификатор кодека/Информация : UTF-8 Plain Text
Язык : Portuguese
Default : Нет
Forced : Нет

Текст #5
Идентификатор : 12
Формат : UTF-8
Идентификатор кодека : S_TEXT/UTF8
Идентификатор кодека/Информация : UTF-8 Plain Text
Язык : French
Default : Нет
Forced : Нет

Текст #6
Идентификатор : 13
Формат : UTF-8
Идентификатор кодека : S_TEXT/UTF8
Идентификатор кодека/Информация : UTF-8 Plain Text
Язык : German
Default : Нет
Forced : Нет

Текст #7
Идентификатор : 14
Формат : UTF-8
Идентификатор кодека : S_TEXT/UTF8
Идентификатор кодека/Информация : UTF-8 Plain Text
Язык : Italian
Default : Нет
Forced : Нет

Текст #8
Идентификатор : 15
Формат : UTF-8
Идентификатор кодека : S_TEXT/UTF8
Идентификатор кодека/Информация : UTF-8 Plain Text
Язык : Spanish
Default : Нет
Forced : Нет

Текст #9
Идентификатор : 16
Формат : UTF-8
Идентификатор кодека : S_TEXT/UTF8
Идентификатор кодека/Информация : UTF-8 Plain Text
Язык : Swedish
Default : Нет
Forced : Нет

Меню
00:00:00.000 : en:Cry For Help
00:03:01.000 : en:Aftermath
00:15:35.000 : en:An Ugly Case
00:26:39.000 : en:Reckless Endangerment
00:32:08.000 : en:A Change
00:34:53.000 : en:Scorpion
00:42:17.000 : en:I Owe Her
00:49:26.000 : en:No Secrets
00:55:53.000 : en:The Emergency Caller
01:01:49.000 : en:Trial
01:14:48.000 : en:I Don't Want To Lie
01:33:32.000 : en:Summation
01:41:28.000 : en:The Tenth House
01:43:41.000 : en:Decision
Скриншоты:


Все одноименные релизы в Клубе

Смотреть Online

Детали торрента:
Название:Обвиняемые / The Accused (1988) WEB-DL [H.264/1080p] [Open Matte]
Дата добавления:11 Янв 2019 13:31:04
Размер:12,5 GB
Раздают:1
Качают:6
Форум:Старые Зарубежные Фильмы (HD, UHD, UHD-LQ)

All rights reserved © 2015-2019