TORRENTS45.XYZ

Скачать Альпийские страсти / Alpengluhn im Dirndlrock (1974) DVDRip [H.264]


Альпийские страсти / Alpengluhn im Dirndlrock (1974) DVDRip [H.264]
Производство: Германия (ФРГ)/ Lisa-Film GmbH
Жанр: Комедия

Режиссер: Зиги Ротемунд
Продюсер: Карл Шпис
Актеры: Элизабет Фолькманн, Ринальдо Таламонти, Катарина Конти, Юрген Файндт, Ульрика Буц, Элизабет Фельхнер, Йорг Нагель, Эрих Падалевски, Вернер Рёглин, Пуппа Армбрустер

Описание:
В деревушке Фогельбрюн пиво течет рекой, погреба ломятся от колбас, а пышные баварские красотки водят хороводы и не прочь позабавиться с местными парнями. И лишь одного не хватает этому альпийскому раю для полного счастья — стать городом. Если скоро здесь не появятся семь новых жителей, не видать деревушке ни туристов, ни деньжат.
Местная молодежь, а с ними и похотливые дочки мэра, с удовольствием поддержат ударный почин, но у них есть грозный противник — Лига Высокой Морали. Тем временем, в Фогельбрюн уже едет инкогнито дотошный инспектор, чтобы проверить, готовы ли находчивые баварцы стать горожанами…


Возраст: 18+ (зрителям, достигшим 18 лет. запрещено для детей)

Релиз от: Охрана (Torrents45.xyz)
Продолжительность: 01:19:34
Качество видео: DVDRip
Перевод: Профессиональный (многоголосый закадровый), одноголосый закадровый
Субтитры: Отсутствуют

Видео: AVC/H.264, 720x448, ~2040 Kbps
Аудио 1: AC3, 2 ch, 192 Kbps, 48.0 kHz – Русский MVO
Аудио 2: AC3, 2 ch, 192 Kbps, 48.0 kHz – Русский VO, женский с VHS
Аудио 3: AC3, 2 ch, 192 Kbps, 48.0 kHz – Немецкий

Mediainfo:


Общее
Уникальный идентификатор : 204908421465097132645061103838770860174 (0x9A27ED2D828502BD937481684ECD908E)
Полное имя : B:\Downloads\Альпийские страсти. 1974. torrents45.xyzv
Формат : Matroska
Версия формата : Version 4 / Version 2
Размер файла : 1,46 Гбайт
Продолжительность : 1 ч. 19 м.
Общий поток : 2618 Кбит/сек
Дата кодирования : UTC 2019-01-08 11:52:21
Программа кодирования : mkvmerge v7.9.0 ('Birds') 64bit
Библиотека кодирования : libebml v1.3.1 + libmatroska v1.4.2

Видео
Идентификатор : 1
Формат : AVC
Формат/Информация : Advanced Video Codec
Профиль формата : High@L4.1
Настройки формата : CABAC / 12 Ref Frames
Параметр CABAC формата : Да
Параметр RefFrames формата : 12 кадров
Идентификатор кодека : V_MPEG4/ISO/AVC
Продолжительность : 1 ч. 19 м.
Битрейт : 2040 Кбит/сек
Ширина : 720 пикселей
Высота : 448 пикселей
Соотношение сторон : 16:10
Режим частоты кадров : Постоянный
Частота кадров : 25,000 кадров/сек
Цветовое пространство : YUV
Субдискретизация насыщенности : 4:2:0
Битовая глубина : 8 бит
Тип развёртки : Прогрессивная
Бит/(Пиксели*Кадры) : 0.253
Размер потока : 1,13 Гбайт (78%)
Заголовок : Alpengluhn im Dirndlrock
Библиотека кодирования : x264 core 146 r2538 121396c
Настройки программы : cabac=1 / ref=12 / deblock=1:-1:-1 / analyse=0x3:0x113 / me=umh / subme=10 / psy=1 / psy_rd=1.00:0.10 / mixed_ref=1 / me_range=32 / chroma_me=1 / trellis=2 / 8x8dct=1 / cqm=0 / deadzone=21,11 / fast_pskip=0 / chroma_qp_offset=-3 / threads=6 / lookahead_threads=1 / sliced_threads=0 / nr=0 / decimate=0 / interlaced=0 / bluray_compat=0 / constrained_intra=0 / bframes=7 / b_pyramid=2 / b_adapt=2 / b_bias=0 / direct=3 / weightb=1 / open_gop=0 / weightp=2 / keyint=250 / keyint_min=25 / scenecut=40 / intra_refresh=0 / rc_lookahead=60 / rc=2pass / mbtree=1 / bitrate=2040 / ratetol=1.0 / qcomp=0.60 / qpmin=0 / qpmax=69 / qpstep=4 / cplxblur=20.0 / qblur=0.5 / vbv_maxrate=14000 / vbv_bufsize=14000 / nal_hrd=none / filler=0 / ip_ratio=1.40 / aq=1:1.00
Язык : German
Default : Да
Forced : Нет

Аудио #1
Идентификатор : 2
Формат : AC-3
Формат/Информация : Audio Coding 3
Идентификатор кодека : A_AC3
Продолжительность : 1 ч. 19 м.
Вид битрейта : Постоянный
Битрейт : 192 Кбит/сек
Каналы : 2 канала
Расположение каналов : Front: L R
Частота : 48,0 КГц
Частота кадров : 31,250 кадров/сек (1536 SPF)
Битовая глубина : 16 бит
Метод сжатия : С потерями
Задержка видео : 26 мс.
Размер потока : 109 Мбайт (7%)
Заголовок : Многоголосый закадровый
Язык : Russian
ServiceKind/String : Complete Main
Default : Да
Forced : Нет

Аудио #2
Идентификатор : 3
Формат : AC-3
Формат/Информация : Audio Coding 3
Идентификатор кодека : A_AC3
Продолжительность : 1 ч. 19 м.
Вид битрейта : Постоянный
Битрейт : 192 Кбит/сек
Каналы : 2 канала
Расположение каналов : Front: L R
Частота : 48,0 КГц
Частота кадров : 31,250 кадров/сек (1536 SPF)
Битовая глубина : 16 бит
Метод сжатия : С потерями
Задержка видео : 26 мс.
Размер потока : 109 Мбайт (7%)
Заголовок : Одноголосый закадровый
Язык : Russian
ServiceKind/String : Complete Main
Default : Нет
Forced : Нет

Аудио #3
Идентификатор : 4
Формат : AC-3
Формат/Информация : Audio Coding 3
Идентификатор кодека : A_AC3
Продолжительность : 1 ч. 19 м.
Вид битрейта : Постоянный
Битрейт : 192 Кбит/сек
Каналы : 2 канала
Расположение каналов : Front: L R
Частота : 48,0 КГц
Частота кадров : 31,250 кадров/сек (1536 SPF)
Битовая глубина : 16 бит
Метод сжатия : С потерями
Задержка видео : 26 мс.
Размер потока : 109 Мбайт (7%)
Заголовок : Немецкий
Язык : German
ServiceKind/String : Complete Main
Default : Нет
Forced : Нет
Скриншоты:

Дополнительные скриншоты:



Все одноименные релизы в Клубе
Детали торрента:
Название:Альпийские страсти / Alpengluhn im Dirndlrock (1974) DVDRip [H.264]
Дата добавления:11 Янв 2019 12:49:06
Размер:1,46 GB
Раздают:11
Качают:7
Форум:Старые Зарубежные Фильмы (HD*Rip/LQ, DVDRip, SATRip, VHSRip)

All rights reserved © 2015-2019