TORRENTS45.XYZ

Скачать Bowes & Morley - 2 альбома (2002-2004) [FLAC|Lossless|image + .cue] <Hard Rock, Classic Rock, Indie Rock>


Bowes & Morley - 2 альбома (2002-2004)
Жанр: Hard Rock, Classic Rock, Indie Rock
Продолжительность: 01:47:11
Страна: UK
Кодек: FLAC
Битрейт: Lossless
Тип рипа: image + .cue
Наличие полиграфии в раздаче: full
Треклист:
01. Freakshow (3:49)
02. Hypnotized (4:22)
03. Something About My Baby (5:21)
04. Powertripping (3:49)

2002 | Moving Swiftly Along (CD-Maximum)

Страна-производитель диска: Russia
Номер по каталогу: CDM 0505-2267
Источник (релизер): gravegihar
Трэклист:
--------------------------


01. Freakshow (3:49)
02. Hypnotized (4:22)
03. Something About My Baby (5:21)
04. Powertripping (3:49)
05. Don't Take Your Love Away (3:56)
06. Dancing the Night Away (4:16)
07. You're Drifting Away (3:29)
08. Hesitate (3:53)
09. Change (4:05)
10. The River of Life (4:53)
11. Better Times (4:32)
12. Sick and Tired (3:50)
13. I'd Take the Stars Out of the Sky (4:49)

Лог создания рипа

Код: выделить все
Exact Audio Copy V1.3 from 2. September 2016

EAC extraction logfile from 2. October 2018, 22:31

Bowes & Morley / Moving Swiftly Along

Used drive  : ASUS    DRW-24D5MT   Adapter: 1  ID: 1

Read mode               : Secure
Utilize accurate stream : Yes
Defeat audio cache      : Yes
Make use of C2 pointers : No

Read offset correction                      : 6
Overread into Lead-In and Lead-Out          : No
Fill up missing offset samples with silence : Yes
Delete leading and trailing silent blocks   : No
Null samples used in CRC calculations       : Yes
Used interface                              : Installed external ASPI interface

Used output format              : User Defined Encoder
Selected bitrate                : 128 kBit/s
Quality                         : High
Add ID3 tag                     : No
Command line compressor         : C:\Program Files (x86)\Exact Audio Copy\Flac\flac.exe
Additional command line options :  -8 -V -T "TITLE=%title%" -T "ARTIST=%artist%" -T "ALBUMARTIST=%albumartist%" -T "ALBUM=%albumtitle%" -T "DATE=%year%" -T "TRACKNUMBER=%tracknr%" -T "TRACKTOTAL=%numtracks%" -T "GENRE=%genre%" -T "COMMENT=%comment%" -T "PERFORMER=%albuminterpret%" -T "COMPOSER=%composer%" %source% -o %dest%

TOC of the extracted CD

     Track |   Start  |  Length  | Start sector | End sector
    ---------------------------------------------------------
        1  |  0:00.00 |  3:49.33 |         0    |    17207
        2  |  3:49.33 |  4:21.47 |     17208    |    36829
        3  |  8:11.05 |  5:20.43 |     36830    |    60872
        4  | 13:31.48 |  3:48.58 |     60873    |    78030
        5  | 17:20.31 |  3:55.58 |     78031    |    95713
        6  | 21:16.14 |  4:16.23 |     95714    |   114936
        7  | 25:32.37 |  3:28.53 |    114937    |   130589
        8  | 29:01.15 |  3:52.41 |    130590    |   148030
        9  | 32:53.56 |  4:05.23 |    148031    |   166428
       10  | 36:59.04 |  4:52.57 |    166429    |   188385
       11  | 41:51.61 |  4:31.42 |    188386    |   208752
       12  | 46:23.28 |  3:50.03 |    208753    |   226005
       13  | 50:13.31 |  4:49.20 |    226006    |   247700

Range status and errors

Selected range

     Filename C:\Users\breaker65\Desktop\Bowes & Morley\Bowes & Morley - Moving Swiftly Along.wav

     Peak level 99.4 %
     Extraction speed 1.7 X
     Range quality 100.0 %
     Test CRC B7D27D2B
     Copy CRC B7D27D2B
     Copy OK

No errors occurred

AccurateRip summary

Track  1  cannot be verified as accurate (confidence 11)  [98426C3E], AccurateRip returned [C22BF34E]  (AR v2)
Track  2  cannot be verified as accurate (confidence 11)  [E5A99C93], AccurateRip returned [5785CFE6]  (AR v2)
Track  3  cannot be verified as accurate (confidence 11)  [8DC6E5E6], AccurateRip returned [A243608B]  (AR v2)
Track  4  cannot be verified as accurate (confidence 11)  [2B2184D0], AccurateRip returned [55143191]  (AR v2)
Track  5  cannot be verified as accurate (confidence 11)  [C074F066], AccurateRip returned [38B834C3]  (AR v2)
Track  6  cannot be verified as accurate (confidence 11)  [63C11F97], AccurateRip returned [F273F820]  (AR v2)
Track  7  cannot be verified as accurate (confidence 11)  [A836884D], AccurateRip returned [A235955C]  (AR v2)
Track  8  cannot be verified as accurate (confidence 11)  [BC52B18E], AccurateRip returned [BF5A77F5]  (AR v2)
Track  9  cannot be verified as accurate (confidence 11)  [BAAB781B], AccurateRip returned [16861C7A]  (AR v2)
Track 10  cannot be verified as accurate (confidence 11)  [1A226F29], AccurateRip returned [74960B9F]  (AR v2)
Track 11  cannot be verified as accurate (confidence 11)  [00BDFFB6], AccurateRip returned [E00B5691]  (AR v2)
Track 12  cannot be verified as accurate (confidence 11)  [F52EF69E], AccurateRip returned [4F49132B]  (AR v2)
Track 13  cannot be verified as accurate (confidence 11)  [B393B23B], AccurateRip returned [5C2A570B]  (AR v2)

No tracks could be verified as accurate
You may have a different pressing from the one(s) in the database

End of status report

---- CUETools DB Plugin V2.1.6

[CTDB TOCID: DMDmpeS8a8JVB7BJiKzcvCHxQaY-] found
Submit result: already submitted
Track | CTDB Status
  1   | (23/24) Accurately ripped
  2   | (23/24) Accurately ripped
  3   | (23/24) Accurately ripped
  4   | (23/24) Accurately ripped
  5   | (24/24) Accurately ripped
  6   | (24/24) Accurately ripped
  7   | (23/24) Accurately ripped
  8   | (23/24) Accurately ripped
  9   | (23/24) Accurately ripped
 10   | (23/24) Accurately ripped
 11   | (23/24) Accurately ripped
 12   | (23/24) Accurately ripped
 13   | (24/24) Accurately ripped

==== Log checksum F1B722068999BBF49FA7C129A78A36EC8D6853130588917EBA730B2E2B66EF44 ====

Об альбоме (сборнике):

Дебютная работа проекта вокалиста и гитариста британской группы THUNDER. После того, как их коллеги по THUNDER разбрелись по другим проектам, музыканты выпустили собственное творение, в корне отличающееся от материала их основной группы и сделанное в духе ретро-рока семидесятых. Идеальный подарок для тех, кому за тридцать.
Главным вопросом поклонников Thunder была проблема сравнения нового альбома дуэта с творчеством прошлой группы. Заполнят ли Bowes and Morley ту нишу, оставленную Thunder, как Thunder в свое время занял место Terraplane?
Впрочем, сомнения большинства рассеялись с первым же треком. "Freakshow" открывает альбом как "Welcome to the Party" открывает концерты многие годы — праздничным настроением. Быстрый pop-rock с элементами фанка, и это заставляет вас пристукивать ногой. Женский бэк-вокал добавляет шарма, и можно сказать, что это классическая вещь Thunder — во всем, кроме названия.



"Hypnotised" начинается с духовой секции, немного напоминает про-латиноамериканскую группу, этот момент отдаляет композицию от традиций Thunder. По настроению композиция похожа на предыдущую, с фанковым ритмом, хотя в целом помедленнее чувствуется своеобразный поклон Santana.
"Something About My Baby" первая баллада альбома. Никаких особых сюрпризов, невинная лиричная композиция с великолепной вокальной партией.
"Powertripping" — еще одна быстрая pop-rock вещь, душевная и ритмичная в то же время. Духовая секция прибавляет блюзовых элементов, а гитарное соло отправляет слушателя в рок 1980-х. Следом — одна баллада: "Don’t Take Your Love Away".
И опять возврат к быстрым темпам: "Dancing the Night Away". Ритмичная песня, которой женский бэк-вокал прибавляет элементы соула. Далее — опять композиция, в названии которой есть слово "away": "You’re Drifting Away" продолжает эту тему. Во многом похожа на "Don’t Take Your Love Away", эту песню тоже можно назвать балладой, хотя в ней определенно немного другое настроение. Можете сесть и расслабиться на фоне этой душевной музыки...
Дальше продолжается творчество в том же духе: душевные, теплые вещи, с элементами фанка, соула, блюза, с красивым женским бэком, с аранжировками духовыми инструментами, с интересными гитарными соло. про каждую вещь можно сказать отдельно, но их лучше слушать и поймать свое настроение: поставить диск в машине, или же отдыхать в мягком кресле под музыку, которая дарит только положительные эмоции.
~ диск предоставлен: CD-Maximum



Line-up / Musicians:

- Daniel Bowes / Lead & Backing Vocals, Worrying
- Luke Morley / All The Guitars, Percussion, Backing Vox ect
Guest:
- Chris Childs / Bass
- Dave Moore / Keyboards
- John Tonks / Drums
- Ben Gant / Trumpet
- Martine Robertson / Sax
- Ian Moffat / Trombone
- Garfield Anthony Myers / Sitar-guitar
- Peter Shoulder / Solo guitar
- Linda & Dee Lewis / Background vocal
- Ana & Tara McDonald / Background vocal

Official DR value: 7

official page
allmusic
discogs
Прoдолжительность: 00:55:03

2004 | Mo's Barbeque (CD-Maximum)

Страна-производитель диска: Russia
Номер по каталогу: CDM 0304-1726
Источник (релизер): gravegihar
Трэклист:
--------------------------


01. Desire (4:38)
02. Living for the city (4:46)
03. On a day like today (5:19)
04. Why did you do it (3:37)
05. Since I left her (4:05)
06. Come together in the morning (Songwriter – Paul Rodgers) (5:16)
07. Waiting for the sky to fall (4:37)
08. Illogical (4:16)
09. How could you? (4:16)
10. That's not love (5:38)
11. Can't stand the rain (5:42)

Лог создания рипа

Код: выделить все
Exact Audio Copy V1.3 from 2. September 2016

EAC extraction logfile from 26. September 2018, 16:43

Bowes&Morley / Mo's Barbeque

Used drive  : ASUS    DRW-24D5MT   Adapter: 1  ID: 1

Read mode               : Secure
Utilize accurate stream : Yes
Defeat audio cache      : Yes
Make use of C2 pointers : No

Read offset correction                      : 6
Overread into Lead-In and Lead-Out          : No
Fill up missing offset samples with silence : Yes
Delete leading and trailing silent blocks   : No
Null samples used in CRC calculations       : Yes
Used interface                              : Installed external ASPI interface

Used output format              : User Defined Encoder
Selected bitrate                : 128 kBit/s
Quality                         : High
Add ID3 tag                     : No
Command line compressor         : C:\Program Files (x86)\Exact Audio Copy\Flac\flac.exe
Additional command line options :  -8 -V -T "TITLE=%title%" -T "ARTIST=%artist%" -T "ALBUMARTIST=%albumartist%" -T "ALBUM=%albumtitle%" -T "DATE=%year%" -T "TRACKNUMBER=%tracknr%" -T "TRACKTOTAL=%numtracks%" -T "GENRE=%genre%" -T "COMMENT=%comment%" -T "PERFORMER=%albuminterpret%" -T "COMPOSER=%composer%" %source% -o %dest%

TOC of the extracted CD

     Track |   Start  |  Length  | Start sector | End sector
    ---------------------------------------------------------
        1  |  0:00.00 |  4:37.49 |         0    |    20823
        2  |  4:37.49 |  4:46.35 |     20824    |    42308
        3  |  9:24.09 |  5:18.50 |     42309    |    66208
        4  | 14:42.59 |  3:36.50 |     66209    |    82458
        5  | 18:19.34 |  4:05.26 |     82459    |   100859
        6  | 22:24.60 |  5:15.41 |    100860    |   124525
        7  | 27:40.26 |  4:36.63 |    124526    |   145288
        8  | 32:17.14 |  4:15.74 |    145289    |   164487
        9  | 36:33.13 |  4:15.47 |    164488    |   183659
       10  | 40:48.60 |  5:37.73 |    183660    |   209007
       11  | 46:26.58 |  5:42.00 |    209008    |   234657
       12  | 54:40.58 |  1:09.68 |    246058    |   251300

Range status and errors

Selected range

     Filename C:\Users\breaker65\Desktop\2004. Mo's Barbeque\Bowes&Morley - Mo's Barbeque.wav

     Peak level 99.7 %
     Extraction speed 4.2 X
     Range quality 99.9 %
     Test CRC 2D52B656
     Copy CRC 2D52B656
     Copy OK

No errors occurred

AccurateRip summary

Track  1  accurately ripped (confidence 1)  [2D75ECE7]  (AR v2)
Track  2  accurately ripped (confidence 1)  [97E5C5E2]  (AR v2)
Track  3  accurately ripped (confidence 1)  [AB900BB9]  (AR v2)
Track  4  accurately ripped (confidence 1)  [CAD85401]  (AR v2)
Track  5  accurately ripped (confidence 1)  [6E197ED1]  (AR v2)
Track  6  accurately ripped (confidence 1)  [2D980D54]  (AR v2)
Track  7  accurately ripped (confidence 1)  [401F6263]  (AR v2)
Track  8  accurately ripped (confidence 1)  [3A6AA3CD]  (AR v2)
Track  9  accurately ripped (confidence 1)  [C44A35F1]  (AR v2)
Track 10  accurately ripped (confidence 1)  [54A8C46B]  (AR v2)
Track 11  accurately ripped (confidence 1)  [161DF9BA]  (AR v2)

All tracks accurately ripped

End of status report

---- CUETools DB Plugin V2.1.6

[CTDB TOCID: 7UJtsA.IVuXjf.nWAFMQ2OspgmM-] found
Submit result: 7UJtsA.IVuXjf.nWAFMQ2OspgmM- has been confirmed
Track | CTDB Status
  1   | (4/4) Accurately ripped
  2   | (4/4) Accurately ripped
  3   | (4/4) Accurately ripped
  4   | (4/4) Accurately ripped
  5   | (4/4) Accurately ripped
  6   | (4/4) Accurately ripped
  7   | (4/4) Accurately ripped
  8   | (4/4) Accurately ripped
  9   | (4/4) Accurately ripped
 10   | (4/4) Accurately ripped
 11   | (4/4) Accurately ripped

==== Log checksum 7AEB89CCC8109970ABC601A16F8B5D1F28A1E091164F660318048840DDE818C1 ====

Об альбоме (сборнике):

Коллекция из 11-ти песен. Интересные запоминающиеся мелодии, которые хочется напевать и слушать снова и снова. Две самые сильные стороны альбома – это композиторская работа и вокал. В написание песен музыканты вложили свой опыт, свои переживания, свое мироощущение. Музыка основывается на акустическом звуке, но это вовсе не значит, что она легкая и попсовая. Духовая секция, электрогитары, мощный бас и временами – душевный церковный хор. Дэнни Боуиз мастерски, в совершенстве владеет своим голосом. Люк отмечал, как удобно работать с таким выдающимся вокалистом: не приходится сдерживать полет своей фантазии в соответствии с ограниченными возможностями вокалиста. Как сказал один рецензент, Боуиз обладает голосом, за который можно умереть. Остается только отметить музыкантов, также участвовавших в записи альбома: это басист Chris Childs из Thunder, барабанщик Mario Goossens из Hooverphonic, клавишник Mark Taylor из The Cult, The Alarm, The Lords of the New Church. ©



Улыбающийся мужик в фартуке с бокалом вина в руке, готовящий барбекю в аккуратной барбекюшнице, настраивает на определенный лад: подобный сюжет на обложке может подходить лишь к типично американской музыке, замешанной на блюзе, джазе и рокабилли. Так и есть, правда проект Bowes & Morley родом из старушки Англии... Более того, вокалист Дэниэл Боус и гитарист Люк Морли некогда трудились в рядах славного блюз-хард-рокового коллектива Thunder. Отпочковавшись в виде дуэта, хлопцы практически отбросили хардовую составляющую в своем творчестве и сосредоточились на ритм-энд-блюзовых решениях, добавив кое-каких других компонент. Из всего этого получился альбом "Mo's Barbeque", где к основе из приятного блюза добавлены частицы джаза, фьюжна и фолка. Получилось довольно вкусно и ненапряжно.
~ диск предоставлен: CD-Maximum



Line-up / Musicians:

- Danny Bowes / lead and backing vocal, worrying
- Luke Morley / all the guitars, percussion, backing vocals, etc.
- Mark Taylor / piano, organs & all kKeyboards
- Ben Gant / trumpet
- Martine Robertson / sax
- Ian Moffett / trombone
- Chris Childs / bass
- Mario Goossons / drums
- TJ Davies / backing vocals
- Angela Murrell / backing vocals
- Tara MacDonald / additional vocals on 'How Could You?'

Интересно:
04. Why Did You Do It - самый известный хит группы Stretch (1977)
06. Come Together In The Morning - принадлежит перу Пола Роджерса и впервые вышла на альбоме Free "Heartbreaker" (1973)
11. I Can't Stand The Rain - вещь, давно ставшая соул и ритм-энд-блюзовым стандартом, впервые исполнена (и написана) Энн Пибблз в 1973 г..

Official DR value: 7

metallibrary
thunderonline
rateyourmusic
discogs
Прoдолжительность: 00:52:09

Thunder - 19 альбомов, 30 CD (1990 - 2017)


Дуэт, состоящий из гитариста Luke Morley и вокалиста Danny Bowes (оба экс-Terraplane и экс-Thunder). По сути эти пару сольников можно было бы спокойно отнести к творчеству Thunder, так как тексты в основном написаны их двумя лидерами. Прекрасная музыка, приятного прослушивания.


Поглощение/вытеснение
Только с согласия релизера

Bigbeer
Детали торрента:
Название:Bowes & Morley - 2 альбома (2002-2004) [FLAC|Lossless|image + .cue] <Hard Rock, Classic Rock, Indie Rock>
Дата добавления:11 Янв 2019 09:15:30
Размер:873 MB
Раздают:5
Качают:0
Форум:Rock (Lossless)

All rights reserved © 2015-2019