TORRENTS45.XYZ

Скачать Мир принадлежит тебе / Le monde est a toi (2018) BDRip [H.264/1080p] [PR]


Мир принадлежит тебе / Le monde est a toi (2018) BDRip [H.264/1080p]
Производство: Франция / 120 Films, Canal+ (fr), Chi-Fou-Mi Productions, Cine, Iconoclast, NJJ Entertainment, Studio Canal, Tribus P Film
Жанр: Комедия, Криминал

Режиссер: Ромен Гаврас
Актеры: Карим Леклу, Изабель Аджани, Венсан Кассель, Улайя Амамра, Франсуа Дамиенс, Филипп Катрин, Сэм Спруэлл, Гэбби Роуз, Софиан Каммес, Мунир Амамра

Описание:
Криминальный талант он унаследовал от гламурной матери, изящно опустошающей лучшие бутики Франции, страстно увлекающейся азартными играми и искусно манипулирующей всеми вокруг, и отца, который не так давно наводил шороху на весь Париж. Но молодой человек мечтает о легальном бизнесе и спокойной жизни на берегу океана с любимой девушкой. Правда, чтобы провернуть последнюю грандиозную аферу, ему все-таки придется обратиться за помощью к маме и папе…


Возраст: 18+ (зрителям, достигшим 18 лет. запрещено для детей)
Дата мировой премьеры: 12 мая 2018
Дата российской премьеры: 13 сентября 2018, «Вольга»
Дата выхода DVD/Blu-ray релиза: 15 декабря 2018, «Вольга»

Продолжительность: 01:40:03
Качество видео: BDRip
Перевод: Дублированный (iTunes)
Субтитры: Русские, французские

Видео: AVC/H.264, 1920x804, ~7500 Kbps
Аудио #1: AC3, 6 ch, 384 Kbps - русский
Аудио #2: DTS, 6 ch, 768 Kbps - французский

Mediainfo:


x264 [info]: frame I:48 Avg QP:13.02 size:373659
x264 [info]: frame P:549 Avg QP:16.49 size: 65644
x264 [info]: frame B:1953 Avg QP:18.64 size: 23166

Unique ID : 199520704911907026377420610865986360896 (0x961A4A3E31BB21B692FF409BC94D5640)
Complete name : D:\Temp\NNM\Мир принадлежит тебе.mkv
Format : Matroska
Format version : Version 4 / Version 2
File size : 6.04 GiB
Duration : 1h 40mn
Overall bit rate : 8 642 Kbps
Encoded date : UTC 2019-01-10 13:39:19
Writing application : mkvmerge v9.8.0 ('Kuglblids') 64bit
Writing library : Lavf57.71.100

Video
ID : 1
Format : AVC
Format/Info : Advanced Video Codec
Format profile : High@L4.1
Format settings, CABAC : Yes
Format settings, ReFrames : 5 frames
Codec ID : V_MPEG4/ISO/AVC
Duration : 1h 40mn
Bit rate : 7 500 Kbps
Width : 1 920 pixels
Height : 804 pixels
Display aspect ratio : 2.40:1
Frame rate mode : Constant
Frame rate : 24.000 fps
Color space : YUV
Chroma subsampling : 4:2:0
Bit depth : 8 bits
Scan type : Progressive
Bits/(Pixel*Frame) : 0.202
Stream size : 5.11 GiB (85%)
Writing library : x264 core 157 r2935 545de2f
Encoding settings : cabac=1 / ref=5 / deblock=1:-3:-3 / analyse=0x3:0x113 / me=umh / subme=10 / psy=1 / psy_rd=1.05:0.10 / mixed_ref=1 / me_range=24 / chroma_me=1 / trellis=2 / 8x8dct=1 / cqm=0 / deadzone=21,11 / fast_pskip=0 / chroma_qp_offset=-3 / threads=5 / lookahead_threads=1 / sliced_threads=0 / nr=0 / decimate=0 / interlaced=0 / bluray_compat=0 / constrained_intra=0 / bframes=10 / b_pyramid=2 / b_adapt=2 / b_bias=0 / direct=1 / weightb=1 / open_gop=0 / weightp=2 / keyint=240 / keyint_min=24 / scenecut=40 / intra_refresh=0 / rc=2pass / mbtree=0 / bitrate=7500 / ratetol=1.0 / qcomp=0.70 / qpmin=3 / qpmax=69 / qpstep=4 / cplxblur=20.0 / qblur=0.5 / ip_ratio=1.40 / pb_ratio=1.30 / aq=2:1.00
Default : Yes
Forced : No

Audio #1
ID : 2
Format : AC-3
Format/Info : Audio Coding 3
Mode extension : CM (complete main)
Format settings, Endianness : Big
Codec ID : A_AC3
Duration : 1h 40mn
Bit rate mode : Constant
Bit rate : 384 Kbps
Channel(s) : 6 channels
Channel positions : Front: L C R, Side: L R, LFE
Sampling rate : 48.0 KHz
Bit depth : 16 bits
Compression mode : Lossy
Stream size : 275 MiB (4%)
Language : Russian
Default : Yes
Forced : No

Audio #2
ID : 3
Format : DTS
Format/Info : Digital Theater Systems
Mode : 16
Format settings, Endianness : Big
Codec ID : A_DTS
Duration : 1h 40mn
Bit rate mode : Constant
Bit rate : 768 Kbps
Channel(s) : 6 channels
Channel positions : Front: L C R, Side: L R, LFE
Sampling rate : 48.0 KHz
Bit depth : 16 bits
Compression mode : Lossy
Stream size : 550 MiB (9%)
Language : French
Default : No
Forced : No

Text #1
ID : 4
Format : UTF-8
Codec ID : S_TEXT/UTF8
Codec ID/Info : UTF-8 Plain Text
Language : Russian
Default : Yes
Forced : No

Text #2
ID : 5
Format : UTF-8
Codec ID : S_TEXT/UTF8
Codec ID/Info : UTF-8 Plain Text
Language : French
Default : No
Forced : No
Скриншоты:


Все одноименные релизы в Клубе

Смотреть Online

Детали торрента:
Название:Мир принадлежит тебе / Le monde est a toi (2018) BDRip [H.264/1080p] [PR]
Дата добавления:10 Янв 2019 15:49:41
Размер:6,04 GB
Раздают:71
Качают:25
Форум:Новинки (HD, UHD, UHD-LQ)

All rights reserved © 2015-2019