TORRENTS45.XYZ

Скачать Одиночка (2016) WEBRip (сезон 1, серии 1-16 из 16)


Одиночка (2016) WEBRip (сезон 1, серии 1-16 из 16)
Производство: Россия, Украина / Киевтелефильм
Жанр: детектив

Режиссер: Виктор Конисевич
Актеры: Алексей Горбунов, Ванда Конисевич, Ирина Ефремова, Андрей Стоянов, Алиса Тункевич, Николай Боклан, Мария Климова, Андрей Исаенко, Сергей Кучера, Станислав Щёкин и др.

Описание:
Глеб Мечников кажется жестким и принципиальным. Он привык решать все проблемы самостоятельно и держать слово, чем вызывает уважение знакомых и коллег. Единственное утешение и луч света в жизни Глеба — дочь Кристина. Мужчина вырастил ее сам, без жены и какой-либо поддержки со стороны родных. Девочке 16 лет, и ее отношения с отцом не назовешь простыми.. .



Продолжительность: ~00:45:00 серия
Качество видео: WEBRip

Видео: Xvid, 720x400 (16:9), ~1495 kbps
Аудио: AC3, 2 ch, 192 Kbps

Mediainfo:


General
Complete name : D:\Мои фильмы\Odinochka_S1_1-16z16_2016_XviD_WEBRip\Odinochka_S1_01.avi
Format : AVI
Format/Info : Audio Video Interleave
File size : 556 MiB
Duration : 45 min 47 s
Overall bit rate : 1 697 kb/s
Writing library : VirtualDub2 build 41867/release

Video
ID : 0
Format : MPEG-4 Visual
Format profile : Advanced Simple@L5
Format settings : BVOP2
Format settings, BVOP : 2
Format settings, QPel : No
Format settings, GMC : No warppoints
Format settings, Matrix : Default (H.263)
Codec ID : XVID
Codec ID/Hint : XviD
Duration : 45 min 47 s
Bit rate : 1 495 kb/s
Width : 720 pixels
Height : 400 pixels
Display aspect ratio : 16:9
Frame rate : 25.000 FPS
Color space : YUV
Chroma subsampling : 4:2:0
Bit depth : 8 bits
Scan type : Progressive
Compression mode : Lossy
Bits/(Pixel*Frame) : 0.208
Stream size : 490 MiB (88%)
Writing library : XviD 67

Audio
ID : 1
Format : AC-3
Format/Info : Audio Coding 3
Commercial name : Dolby Digital
Codec ID : 2000
Duration : 45 min 47 s
Bit rate mode : Constant
Bit rate : 192 kb/s
Channel(s) : 2 channels
Channel layout : L R
Sampling rate : 48.0 kHz
Frame rate : 31.250 FPS (1536 SPF)
Bit depth : 16 bits
Compression mode : Lossy
Stream size : 62.9 MiB (11%)
Alignment : Aligned on interleaves
Interleave, duration : 40 ms (1.00 video frame)
Interleave, preload duration : 512 ms
Service kind : Complete Main
Скриншоты:


Все одноименные релизы в Клубе

Смотреть Online

Детали торрента:
Название:Одиночка (2016) WEBRip (сезон 1, серии 1-16 из 16)
Дата добавления:10 Янв 2019 15:32:25
Размер:8,68 GB
Раздают:36
Качают:1
Форум:Отечественные сериалы

All rights reserved © 2015-2019