TORRENTS45.XYZ

Скачать Surgical Techniques in Ophthalmology | Хирургические техники в офтальмологии (2013 - 2016) DVDRip [H.264]


Surgical Techniques in Ophthalmology | Хирургические техники в офтальмологии (2013 - 2016) DVDRip [H.264]
Автор (режиссер): Surgical Techniques in Ophthalmology
Производство: США
Жанр: Хирургия, Офтальмология, Учебные Материалы, Медицина

Описание:
DVD приложения (6 DVD) к серии книг «Хирургические техники в офтальмологии» охватывает основные элементы хирургического подхода к глазным заболеваниям. Данные приложения представля­ют базовые принципы для каждой отдельно взятой хирургической техники где перечислены необходимые для операции инструменты и оборудование, а также показания и противопоказания к хирургическим вмешательствам, поша­гово описаны хирургические техники, рассмотрены осложнения и послеопера­ционное ведение. Основная цель данного материала - поделиться практическими знаниями. DVD, содержат видео-(и) аудиоматериал, позволяющий пользователям увидеть ход операции "глазами хирурга".

Продолжительность: 13:49:12
Качество видео: DVDRip

Видео: AVC/H.264, 568х430, 568х456, 576х432, 640х480, ~1946 Kbps
Аудио: AAC, 2 ch, ~64-90 Kbps

Mediainfo:


General
Complete name :01. Хирургия глаукомы\Video 08_1.mp4
Format : MPEG-4
Format profile : Base Media
Codec ID : isom (isom/iso2/avc1/mp41)
File size : 315 MiB
Duration : 21 min 45 s
Overall bit rate : 2 023 kb/s
Writing application : XviD4PSP 7.0.452 DAILY
encoding_info : MP4 > MP4 Apple 1080p / H264 > COPY Безопасное / AAC-LC > AAC VBR 4 LC
Video #1
ID : 1
Format : AVC
Format/Info : Advanced Video Codec
Format profile : High@L3
Format settings : CABAC / 4 Ref Frames
Format settings, CABAC : Yes
Format settings, RefFrames : 4 frames
Codec ID : avc1
Codec ID/Info : Advanced Video Coding
Duration : 21 min 45 s
Bit rate : 1 946 kb/s
Width : 568 pixels
Height : 430 pixels
Display aspect ratio : 4:3
Frame rate mode : Constant
Frame rate : 23.976 (24000/1001) FPS
Color space : YUV
Chroma subsampling : 4:2:0
Bit depth : 8 bits
Scan type : Progressive
Bits/(Pixel*Frame) : 0.332
Stream size : 303 MiB (96%)
Writing library : x264 core 155 r2901M 7d0ff22
Encoding settings : cabac=1 / ref=3 / deblock=1:0:0 / analyse=0x3:0x133 / me=hex / subme=7 / psy=1 / psy_rd=1.00:0.20 / mixed_ref=1 / me_range=16 / chroma_me=1 / trellis=1 / 8x8dct=1 / cqm=0 / deadzone=21,11 / fast_pskip=1 / chroma_qp_offset=-3 / threads=9 / lookahead_threads=1 / sliced_threads=0 / nr=0 / decimate=1 / interlaced=0 / bluray_compat=0 / constrained_intra=0 / bframes=3 / b_pyramid=2 / b_adapt=2 / b_bias=0 / direct=3 / weightb=1 / open_gop=0 / weightp=2 / keyint=240 / keyint_min=24 / scenecut=40 / intra_refresh=0 / rc_lookahead=40 / rc=2pass / mbtree=1 / bitrate=1946 / ratetol=1.0 / qcomp=0.60 / qpmin=0 / qpmax=69 / qpstep=4 / cplxblur=20.0 / qblur=0.5 / ip_ratio=1.40 / aq=1:1.00
Language : English
Audio #2
ID : 2
Format : AAC
Format/Info : Advanced Audio Codec
Format profile : LC
Codec ID : mp4a-40-2
Duration : 21 min 45 s
Bit rate mode : Constant
Bit rate : 72.0 kb/s
Channel(s) : 2 channels
Channel(s)_Original : 1 channel
Channel positions : Front: C
Sampling rate : 48.0 kHz
Frame rate : 46.875 FPS (1024 SPF)
Compression mode : Lossy
Stream size : 11.2 MiB (4%)
Language : English
Default : Yes
Alternate group : 1

Продолжение описания:

PS. Эта раздача является пожатым вариантом сборника уже имеющегося на трекере, отличающаяся более компактным размером, пожатая в x264 кодек с переменным битрейтом и 2-pass режимом (благодаря чему и удалось существенно уменьшить размер от первоначальных 24GB) и аудиопотоком AAC VBR
Вот ссылка на оригинал. Surgical Techniques in Ophthalmology | Хирургические техники в офтальмологии [6 DVD] (2013-2016) DVDRip
PPS. Видеоматериал является сборником записей операций коллектива практикующих хирургов, каждый из которых курировал свой раздел и качество видео отличается между собой соответственно. Если в видеофайлах присутствует интерлейсинг, шум и рассыпание картинки, и даже разность разрешений картинки видео в разных папках, то большая просьба не предъявлять претензии к автору оригинала и мне лично, таково качество оригинальных материалов и ястарался сохранить то что имеем. Лучшего попросту нет для такого рода темы. Раздача ориентирована в первую очередь на клинических ординаторов и медицинских студентов.

Дополнительная информация:

Содержание (книг):
- «1. Хирургия глаукомы»
Редакторы: Чен Т., Аветисов С.Э., Еричев В.П.
Ориг. название: Glaucoma Surgery: Surgical Techniques in Ophthalmology
Год выпуска: 2013
ISBN: 978-5-98657-042-6, 978-1-4160-3021-8
- «2. Хирургия косоглазия»
Редакторы: Феррис Джон Д., Дэйвис Питер И.ДЖ.
Ориг. название: Strabismus Surgery: Surgical Techniques in Ophthalmology
Год выпуска: 2014
ISBN: 978-5-98657-047-1
- «3. Окулопластика»
Редакторы: Лонг Джон А., Аветисов С.Э., Еричев В.П.
Ориг. название: Oculoplastic Surgery
Год выпуска: 2015
ISBN: 978-5-98657-046-4, 978-1-4160-3286-1
- 4. Хирургия катаракты»
Автор/составитель: Бенджамин Л.
Ориг. название: Cataract Surgery
Год выпуска: 2016
ISBN: 978-5-98657-043-3, 978-1-4160-2969-4
- «5. Рефракционная хирургия»
Автор/составитель: Хамптон Ф. Р.
Ориг. название: Refractive Surgery
Год выпуска: 2016
ISBN: 978-5-98657-044-0, 978-1-4160-3022-5
- «6. Витреоретинальная хирургия»
Автор/составитель: Абдхиш Р.Бхавсара
Ориг. название: Retina and Vitreous Surgery: Surgical Techniques in Ophthalmology
Год выпуска: 2013
ISBN: 978-5-98657-045-7, 978-1-4160-4206-8
Скриншоты:


Детали торрента:
Название:Surgical Techniques in Ophthalmology | Хирургические техники в офтальмологии (2013 - 2016) DVDRip [H.264]
Дата добавления:10 Янв 2019 21:54:43
Размер:7,38 GB
Раздают:8
Качают:0
Форум:Другие

All rights reserved © 2015-2019