TORRENTS45.XYZ

Скачать Методом проб и ошибок / Trial & Error (2018) WEBRip [H.264/720p-LQ] (сезон 2, серии 1-10 из 10) BaibaKo


Методом проб и ошибок / Trial & Error (2018) WEBRip [H.264/720p-LQ] (сезон 2,серии 1-10 из 10) BaibaKo
Производство: США / Other Shoe Productions, Good Session, Warner Bros. Television
Жанр: комедия, детектив

Режиссер: Джеффри Блитц, Мэттью Сон
Актеры: Николас Д’Агосто, Джейма Мейс, Стивен Бойер, Шерри Шеперд, Джон Литгоу, Аманда Пэйтон, Кристин Ченоуэт, Джоэль МакКрэри, Лорен МакГибон, Майкл Хичкок и др.

Описание:
Когда любителя поэзии и роликов Ларри Хендерсона арестовывают за жестокое убийство жены, из Нью-Йорка в Ист-Пек, Южная Каролина, приезжает проницательный адвокат Джош Сигал, чтобы заняться первым своим серьёзным делом. Познакомившись со своим эксцентричным клиентом и командой как на подбор, Джош быстро понимает, что попал.



Продолжительность: ~00:22:00 серия
Качество видео: WEBRip
Перевод: Многоголосый закадровый, профессиональный BaibaKo

Видео: AVC/H.264, 1280х720 (16:9), ~4137 kbps
Аудио 1: (1-2 серии) AC3, 2 ch, 192 kbps;
(3-10 серии) AC3, 2 ch, 384 kbps- русский, многоголосый, закадровый
Аудио 2: AC3, 6 ch, 640 kbps - английский

Mediainfo:

 

Mediainfo 1-2 серии:

Общее
Уникальный идентификатор : 152177647020718602858843832014465364590 (0x727C5946217470DE498553D907B7726E)
Полное имя : E:\Методом проб и ошибок_Сезон 2_BaibaKo_(WEBRip_720p)\s02e01. Чемодан.mkv
Формат : Matroska
Версия формата : Version 4
Размер файла : 767 Мбайт
Продолжительность : 21 м. 33 с.
Общий поток : 4974 Кбит/сек
Программа кодирования : Lavf57.71.100
Библиотека кодирования : Lavf57.71.100
ErrorDetectionType : Per level 1

Видео
Идентификатор : 1
Формат : AVC
Формат/Информация : Advanced Video Codec
Профиль формата : High@L3.1
Настройки формата : CABAC / 4 Ref Frames
Параметр CABAC формата : Да
Параметр RefFrames формата : 4 кадра
Идентификатор кодека : V_MPEG4/ISO/AVC
Продолжительность : 21 м. 33 с.
Битрейт : 4137 Кбит/сек
Ширина : 1280 пикселей
Высота : 720 пикселей
Соотношение сторон : 16:9
Режим частоты кадров : Постоянный
Частота кадров : 23,976 (24000/1001) кадра/сек
Цветовое пространство : YUV
Субдискретизация насыщенности : 4:2:0
Битовая глубина : 8 бит
Тип развёртки : Прогрессивная
Бит/(Пиксели*Кадры) : 0.187
Размер потока : 623 Мбайт (81%)
Библиотека кодирования : x264 core 152 r2854 e9a5903
Настройки программы : cabac=1 / ref=4 / deblock=1:0:0 / analyse=0x3:0x133 / me=dia / subme=11 / psy=1 / psy_rd=1.00:0.00 / mixed_ref=1 / me_range=16 / chroma_me=1 / trellis=2 / 8x8dct=1 / cqm=0 / deadzone=21,11 / fast_pskip=1 / chroma_qp_offset=-2 / threads=6 / lookahead_threads=1 / sliced_threads=0 / nr=0 / decimate=1 / interlaced=0 / bluray_compat=0 / constrained_intra=0 / bframes=4 / b_pyramid=2 / b_adapt=1 / b_bias=0 / direct=1 / weightb=1 / open_gop=0 / weightp=2 / keyint=250 / keyint_min=25 / scenecut=40 / intra_refresh=0 / rc_lookahead=40 / rc=2pass / mbtree=1 / bitrate=4137 / ratetol=1.0 / qcomp=0.60 / qpmin=10 / qpmax=51 / qpstep=4 / cplxblur=20.0 / qblur=0.5 / ip_ratio=1.40 / aq=1:1.00
Default : Да
Forced : Нет

Аудио #1
Идентификатор : 2
Формат : AC-3
Формат/Информация : Audio Coding 3
Коммерческое название : Dolby Digital
Идентификатор кодека : A_AC3
Продолжительность : 21 м. 33 с.
Вид битрейта : Постоянный
Битрейт : 192 Кбит/сек
Каналы : 2 канала
Channel layout : L R
Частота : 48,0 КГц
Частота кадров : 31,250 кадров/сек (1536 SPF)
Битовая глубина : 16 бит
Метод сжатия : С потерями
Размер потока : 29,6 Мбайт (4%)
Язык : Russian
ServiceKind/String : Complete Main
Default : Да
Forced : Нет

Аудио #2
Идентификатор : 3
Формат : AC-3
Формат/Информация : Audio Coding 3
Коммерческое название : Dolby Digital
Идентификатор кодека : A_AC3
Продолжительность : 21 м. 33 с.
Вид битрейта : Постоянный
Битрейт : 640 Кбит/сек
Каналы : 6 каналов
Channel layout : L R C LFE Ls Rs
Частота : 48,0 КГц
Частота кадров : 31,250 кадров/сек (1536 SPF)
Битовая глубина : 16 бит
Метод сжатия : С потерями
Размер потока : 98,7 Мбайт (13%)
ServiceKind/String : Complete Main
Default : Да
Forced : Нет

Mediainfo 3-10 серии:

Общее
Уникальный идентификатор : 39857103981541082954768653788257403547 (0x1DFC32F20598DF09D38A8627633F429B)
Полное имя : E:\Методом проб и ошибок_Сезон 2_BaibaKo_(WEBRip_720p)\s02e03. Убийственные часы.mkv
Формат : Matroska
Версия формата : Version 4
Размер файла : 828 Мбайт
Продолжительность : 21 м. 35 с.
Общий поток : 5360 Кбит/сек
Программа кодирования : Lavf57.71.100
Библиотека кодирования : Lavf57.71.100
ErrorDetectionType : Per level 1

Видео
Идентификатор : 1
Формат : AVC
Формат/Информация : Advanced Video Codec
Профиль формата : High@L4
Настройки формата : CABAC / 4 Ref Frames
Параметр CABAC формата : Да
Параметр RefFrames формата : 4 кадра
Идентификатор кодека : V_MPEG4/ISO/AVC
Продолжительность : 21 м. 35 с.
Битрейт : 4332 Кбит/сек
Ширина : 1280 пикселей
Высота : 720 пикселей
Соотношение сторон : 16:9
Режим частоты кадров : Постоянный
Частота кадров : 23,976 (24000/1001) кадра/сек
Цветовое пространство : YUV
Субдискретизация насыщенности : 4:2:0
Битовая глубина : 8 бит
Тип развёртки : Прогрессивная
Бит/(Пиксели*Кадры) : 0.196
Размер потока : 653 Мбайт (79%)
Библиотека кодирования : x264 core 152 r2854 e9a5903
Настройки программы : cabac=1 / ref=4 / deblock=1:0:0 / analyse=0x3:0x133 / me=dia / subme=11 / psy=1 / psy_rd=1.00:0.00 / mixed_ref=1 / me_range=16 / chroma_me=1 / trellis=2 / 8x8dct=1 / cqm=0 / deadzone=21,11 / fast_pskip=1 / chroma_qp_offset=-2 / threads=4 / lookahead_threads=1 / sliced_threads=0 / nr=0 / decimate=1 / interlaced=0 / bluray_compat=0 / constrained_intra=0 / bframes=4 / b_pyramid=2 / b_adapt=1 / b_bias=0 / direct=1 / weightb=1 / open_gop=0 / weightp=2 / keyint=250 / keyint_min=25 / scenecut=40 / intra_refresh=0 / rc_lookahead=40 / rc=2pass / mbtree=1 / bitrate=4332 / ratetol=1.0 / qcomp=0.60 / qpmin=10 / qpmax=51 / qpstep=4 / cplxblur=20.0 / qblur=0.5 / ip_ratio=1.40 / aq=1:1.00
Default : Да
Forced : Нет

Аудио #1
Идентификатор : 2
Формат : AC-3
Формат/Информация : Audio Coding 3
Коммерческое название : Dolby Digital
Идентификатор кодека : A_AC3
Продолжительность : 21 м. 35 с.
Вид битрейта : Постоянный
Битрейт : 384 Кбит/сек
Каналы : 2 канала
Channel layout : L R
Частота : 48,0 КГц
Частота кадров : 31,250 кадров/сек (1536 SPF)
Битовая глубина : 16 бит
Метод сжатия : С потерями
Размер потока : 59,3 Мбайт (7%)
Язык : Russian
ServiceKind/String : Complete Main
Default : Да
Forced : Нет

Аудио #2
Идентификатор : 3
Формат : AC-3
Формат/Информация : Audio Coding 3
Коммерческое название : Dolby Digital
Идентификатор кодека : A_AC3
Продолжительность : 21 м. 35 с.
Вид битрейта : Постоянный
Битрейт : 640 Кбит/сек
Каналы : 6 каналов
Channel layout : L R C LFE Ls Rs
Частота : 48,0 КГц
Частота кадров : 31,250 кадров/сек (1536 SPF)
Битовая глубина : 16 бит
Метод сжатия : С потерями
Размер потока : 98,8 Мбайт (12%)
ServiceKind/String : Complete Main
Default : Да
Forced : Нет

Список серий:

2-01. Чемодан / The Suitcase (19.07.2018)
2-02. Хронология / The Timeline (19.07.2018)
2-03. Убийственные часы / The Murder Clock (26.07.2018)
2-04. Пробел в деле / A Hole in the Case (26.07.2018)
2-05. Изменения в команде / A Change in the Team (09.08.2018)
2-06. Новое дело, старое убийство / New Case, Old Murder (09.08.2018)
2-07. Семейное дело / A Family Affair (16.08.2018)
2-08. Плохие инстинкты / Bad Instincts (16.08.2018)
2-09. Крупный прорыв / A Big Break (23.08.2018)
2-10. Барселона / Barcelona (23.08.2018)

Подготовка релиза:

Перевод: Профессиональный (многоголосый, закадровый)
Релиз-группа: BaibaKo.tv
Очистка от рекламы: Atla22
Скриншоты:


Все одноименные релизы в Клубе

Смотреть Online

Детали торрента:
Название:Методом проб и ошибок / Trial & Error (2018) WEBRip [H.264/720p-LQ] (сезон 2, серии 1-10 из 10) BaibaKo
Дата добавления:10 Янв 2019 11:21:55
Размер:8,04 GB
Раздают:15
Качают:1
Форум:Зарубежные сериалы

All rights reserved © 2015-2019