TORRENTS45.XYZ

Скачать Комната 104 / Room 104 (2018) WEB-DL [H.264/1080p-LQ] (сезон 2, серии 1-11 из 12) TVShows (обновляемая)


Комната 104 / Room 104 (2018) WEB-DL [H.264/1080p-LQ] (сезон 2, серии 1-11 из 12) TVShows (обновляемая)
Производство: США / Duplass Brothers Productions
Жанр: ужасы, триллер, драма

Режиссер: Сара Адина, Патрик Брайс, Дэйна Хэнсон
Актеры: Мелони Диас, Кларк Дьюк, Джей Дюпласс, Адам Фостер, Каран Сони, Дендри Тейлор, Сара Хэй, Пурна Джаганнатан, Орландо Джонс

Описание:
Сюжет истории вращается вокруг одной небольшой комнаты под номер 104 в довольно милой и убранной гостинице. За столько лет существования заведения, эта комната увидела и стерпела многое. Ее стены слышали припадки радости, вопли гнева, слезы и даже угрозы. Кого только судьба не приносила в апартаменты 104. Здесь неоднократно появлялись богачи, сорящие деньгами во все стороны, а также порою, но все же реже заглядывали и бедняки. Сегодня у них еще были деньги на оплату номера, а завтра карманы пусты и вновь улица, холод, безразличие прохожих. Но все это для комнаты пустяки, к такому ее стены привыкли, но помнят они более страшные дела, угнетающие и пугающие, некогда даже осквернившие обитель человеческой кровью. Это не прошло бесследно и печать тех страшных дел, будто клеймо впечатано в номер 104.


Возраст: 18+ (зрителям, достигшим 18 лет. запрещено для детей)

Продолжительность: ~00:25:00 серия
Качество видео: WEB-DL
Перевод: Многоголосый закадровый, любительский (TVShows)
Субтитры: английские

Видео: AVC/H.264, 1920х1080, ~5950 Kbps
Аудио 1: AC3, 6 ch, 384 kbps - русский, многоголосый закадровый
Аудио 2: E-AC3, 6 ch, 640 kbps - английский

Mediainfo:


General
Unique ID : 177200767815796033716243190785704455724 (0x854FA061AE30FEBB6958C131FCDFEE2C)
Complete name : D:\Users\01\Downloads\Room.104.S02.1080p.TVShows\Room.104.S02E01.1080p.TVShows.mkv
Format : Matroska
Format version : Version 4 / Version 2
File size : 1.30 GiB
Duration : 26mn 15s
Overall bit rate : 7 115 Kbps
Encoded date : UTC 2018-12-21 12:32:59
Writing application : mkvmerge v29.0.0 ('Like It Or Not') 64-bit
Writing library : libebml v1.3.6 + libmatroska v1.4.9
DURATION : 00:26:15.008000000
NUMBER_OF_FRAMES : 49219
NUMBER_OF_BYTES : 75600384
_STATISTICS_WRITING_APP : mkvmerge v29.0.0 ('Like It Or Not') 64-bit
_STATISTICS_WRITING_DATE_UTC : 2018-12-21 12:32:59
_STATISTICS_TAGS : BPS DURATION NUMBER_OF_FRAMES NUMBER_OF_BYTES

Video
ID : 1
Format : AVC
Format/Info : Advanced Video Codec
Format profile : High@L4.0
Format settings, CABAC : Yes
Format settings, ReFrames : 4 frames
Codec ID : V_MPEG4/ISO/AVC
Duration : 26mn 15s
Bit rate : 5 949 Kbps
Width : 1 920 pixels
Height : 1 080 pixels
Display aspect ratio : 16:9
Frame rate mode : Constant
Frame rate : 23.976 fps
Color space : YUV
Chroma subsampling : 4:2:0
Bit depth : 8 bits
Scan type : Progressive
Bits/(Pixel*Frame) : 0.120
Stream size : 1.09 GiB (84%)
Default : Yes
Forced : No
Color primaries : BT.709
Transfer characteristics : BT.709
Matrix coefficients : BT.709

Audio #1
ID : 2
Format : AC-3
Format/Info : Audio Coding 3
Mode extension : CM (complete main)
Format settings, Endianness : Big
Codec ID : A_AC3
Duration : 26mn 15s
Bit rate mode : Constant
Bit rate : 384 Kbps
Channel(s) : 6 channels
Channel positions : Front: L C R, Side: L R, LFE
Sampling rate : 48.0 KHz
Bit depth : 16 bits
Compression mode : Lossy
Stream size : 72.1 MiB (5%)
Title : TVShows
Language : Russian
Default : Yes
Forced : Yes

Audio #2
ID : 3
Format : E-AC-3
Format/Info : Audio Coding 3
Format settings, Endianness : Big
Codec ID : A_EAC3
Duration : 26mn 15s
Bit rate mode : Constant
Bit rate : 640 Kbps
Channel(s) : 6 channels
Channel positions : Front: L C R, Side: L R, LFE
Sampling rate : 48.0 KHz
Compression mode : Lossy
Delay relative to video : 21ms
Stream size : 120 MiB (9%)
Title : Original
Language : English
Default : No
Forced : No

Text
ID : 4
Format : UTF-8
Codec ID : S_TEXT/UTF8
Codec ID/Info : UTF-8 Plain Text
Title : English
Language : English
Default : No
Forced : No

Внимание! Раздача ведётся путём добавления новых серий

Внимание! Раздача ведётся путём добавления новых серий; при каждом добавлении создаётся новый торрент.
Чтобы начать докачку новой серии, пользователям необходимо сделать следующее:
1. Остановить скачивание;
2. Удалить старый торрент у себя из клиента (старые серии удалять не надо);
3. Скачать новый торрент и запустить его у себя в клиенте вместо старого, при этом указать клиенту путь в старую папку куда и должно происходить скачивание новых серий. Ваш клиент при этом должен произвести хеширование (проверку) старой папки и будет докачивать только те серии, которых у вас ещё нет. Старые серии при этом не удаляются, а продолжают раздаваться! Eсли вы уже удалили старые серии, то предотвратить повторную закачку старых серий можно, отжав галочку в соответствующих местах при запуске нового торрента.
Скриншоты:


Все одноименные релизы в Клубе

Смотреть Online

Детали торрента:
Название:Комната 104 / Room 104 (2018) WEB-DL [H.264/1080p-LQ] (сезон 2, серии 1-11 из 12) TVShows (обновляемая)
Дата добавления:10 Янв 2019 10:03:01
Размер:13 GB
Раздают:3
Качают:0
Форум:Зарубежные сериалы

All rights reserved © 2015-2019