TORRENTS45.XYZ

Скачать Белая принцесса / The White Princess (2017) WEB-DL [H.264/1080p] (сезон 1, серии 1-8 из 8) TVShows


Белая принцесса / The White Princess (2017) WEB-DL [H.264/1080p] (сезон 1, серии 1-8 из 8) TVShows
Производство: США, Великобритания / Company Pictures, Playground Entertainment, Starz Media
Жанр: драма

Режиссер: Джэми Пэйн, Алекс Калимниос
Актеры: Джоди Комер, Джейкоб Коллинс-Леви, Крис Барникоат, Ребекка Бенсон, Марк Энтони Геймс, Мишель Фэйрли, Эсси Дэвис и др.

Описание:
В центре сюжета — Елизавета Йоркская (дочь Елизаветы Вудвилл и Эдуарда IV) и Генрих VII Тюдор (сын Маргарет Бофорт)... Англия, долгое время пребывавшая в междоусобной войне, наконец вошла в эпоху мира. Он был достигнут благодаря браку принцессы Елизаветы Йоркской, наследницы короля из дома Йорков, и короля Генриха VII, наследника дома Ланкастеров. Но страну и семейную жизнь Елизаветы ждут новые потрясения: её супруг алчен и подозрителен, а на севере вдруг объявляется человек, называющий себя братом королевы.


Возраст: 18+ (зрителям, достигшим 18 лет. запрещено для детей)

Продолжительность: ~00:58:00 серия
Качество видео: WEB-DL
Перевод: Многоголосый закадровый, любительский (TVShows)
Субтитры: английские

Видео: AVC/H.264, 1920х1080, ~10.1 Mbps
Аудио 1: AC3, 6 ch, 448 kbps - русский, многоголосый закадровый
Аудио 2: E-AC3, 6 ch, 640 kbps - английский

Mediainfo:


General
Unique ID : 317870916190213663035852908111111680500 (0xEF23B62B07250F54FED27D5014E871F4)
Complete name : D:\Users\01\Downloads\The.White.Princess.S01.1080p.TVShows\The.White.Princess.S01E01.1080p.TVShows.mkv
Format : Matroska
Format version : Version 4 / Version 2
File size : 4.55 GiB
Duration : 58mn 3s
Overall bit rate : 11.2 Mbps
Encoded date : UTC 2018-11-29 19:14:03
Writing application : mkvmerge v28.2.0 ('The Awakening') 64-bit
Writing library : libebml v1.3.6 + libmatroska v1.4.9

Video
ID : 1
Format : AVC
Format/Info : Advanced Video Codec
Format profile : High@L4.1
Format settings, CABAC : Yes
Format settings, ReFrames : 4 frames
Codec ID : V_MPEG4/ISO/AVC
Duration : 58mn 3s
Bit rate : 10.1 Mbps
Width : 1 920 pixels
Height : 1 080 pixels
Display aspect ratio : 16:9
Frame rate mode : Constant
Frame rate : 23.976 fps
Color space : YUV
Chroma subsampling : 4:2:0
Bit depth : 8 bits
Scan type : Progressive
Bits/(Pixel*Frame) : 0.204
Stream size : 4.02 GiB (88%)
Writing library : x264 core 152 r2851 ba24899
Encoding settings : cabac=1 / ref=4 / deblock=1:-3:-3 / analyse=0x3:0x113 / me=umh / subme=8 / psy=1 / psy_rd=1.00:0.00 / mixed_ref=1 / me_range=32 / chroma_me=1 / trellis=1 / 8x8dct=1 / cqm=0 / deadzone=21,11 / fast_pskip=1 / chroma_qp_offset=-2 / threads=24 / lookahead_threads=4 / sliced_threads=0 / nr=0 / decimate=1 / interlaced=0 / bluray_compat=0 / constrained_intra=0 / bframes=3 / b_pyramid=2 / b_adapt=2 / b_bias=0 / direct=3 / weightb=1 / open_gop=0 / weightp=2 / keyint=240 / keyint_min=24 / scenecut=40 / intra_refresh=0 / rc_lookahead=50 / rc=2pass / mbtree=1 / bitrate=10135 / ratetol=1.0 / qcomp=0.60 / qpmin=0 / qpmax=69 / qpstep=4 / cplxblur=20.0 / qblur=0.5 / ip_ratio=1.40 / aq=3:0.80
Default : Yes
Forced : No

Audio #1
ID : 2
Format : AC-3
Format/Info : Audio Coding 3
Mode extension : CM (complete main)
Format settings, Endianness : Big
Codec ID : A_AC3
Duration : 58mn 3s
Bit rate mode : Constant
Bit rate : 448 Kbps
Channel(s) : 6 channels
Channel positions : Front: L C R, Side: L R, LFE
Sampling rate : 48.0 KHz
Bit depth : 16 bits
Compression mode : Lossy
Stream size : 186 MiB (4%)
Title : TVShows
Language : Russian
Default : Yes
Forced : Yes

Audio #2
ID : 3
Format : AC-3
Format/Info : Audio Coding 3
Mode extension : CM (complete main)
Format settings, Endianness : Big
Codec ID : A_AC3
Duration : 58mn 3s
Bit rate mode : Constant
Bit rate : 640 Kbps
Channel(s) : 6 channels
Channel positions : Front: L C R, Side: L R, LFE
Sampling rate : 48.0 KHz
Bit depth : 16 bits
Compression mode : Lossy
Stream size : 266 MiB (6%)
Title : Original
Language : English
Default : No
Forced : No

Text
ID : 4
Format : UTF-8
Codec ID : S_TEXT/UTF8
Codec ID/Info : UTF-8 Plain Text
Title : English
Language : English
Default : No
Forced : No
Скриншоты:


Все одноименные релизы в Клубе

Смотреть Online

Детали торрента:
Название:Белая принцесса / The White Princess (2017) WEB-DL [H.264/1080p] (сезон 1, серии 1-8 из 8) TVShows
Дата добавления:10 Янв 2019 09:37:58
Размер:36,2 GB
Раздают:13
Качают:2
Форум:Зарубежные сериалы

All rights reserved © 2015-2019