TORRENTS45.XYZ

Скачать Проект засекречен / Проект "Синяя книга" / Project Blue Book (2019) WEBRip [H.264/1080p-LQ] (сезон 1, серии 1 из 10) OMSKBIRD (обновляемая) [AD]


Проект "Синяя книга" / Project Blue Book (2019) WEBRip [H.264/1080p-LQ] (сезон 1, серии 1 из 10) OMSKBIRD
Производство: США / A+E Studios, Compari Entertainment, History Channel
Жанр: детектив, история

Режиссер: Роберт Стромберг, Пит Трэвис, Норма Бэйли
Актеры: Эйдан Гиллен, Майкл Маларки, Лаура Меннелл, Ксения Соло, Майкл Харни, Нил МакДонаф, Роберт Джон Бёрк и др.

Описание:
Пятидесятые годы прошлого века. Астроном Дж. Аллен Хинек и капитан ВВС США Майкл Квинн разбираются со свидетельствами появления НЛО. В ходе расследования они натыкаются на правительственный заговор, скрывающий от населения правду.


Дата мировой премьеры: 8 января 2019

Продолжительность: ~00:44:00 серия
Качество видео: WEBRip
Перевод: Многоголосый закадровый, профессиональный | OMSKBIRD
Субтитры: английские
Реклама: присутствуют аудио вставки рекламы

Видео: AVC/H.264, 1920х960, ~3300 kbps
Аудио # 1: AC-3, 2 ch, 192 kbps, CBR - русский, многоголосый закадровый
Аудио # 2: AC-3, 2 ch, 192 kbps, CBR - английский

Mediainfo:


General
Unique ID : 213308243045666169412561702132499462543 (0xA079AC5B33A43F65A6C7B47ACBC5B98F)
Complete name : H:\Мои Документы\Видео\РАЗДАЧИ\СИНЬКА\Project Blue Book S01 WEBRip 1080p (OMSKBIRD)\Project Blue Book S01E01 WEBRip 1080p (OMSKBIRD).mkv
Format : Matroska
Format version : Version 2
File size : 1.16 GiB
Duration : 44 min 16 s
Overall bit rate : 3 759 kb/s
Encoded date : UTC 2019-01-09 18:39:51
Writing application : mkvmerge v4.0.0 ('The Stars were mine') сборка от Jun 6 2010 16:18:42
Writing library : libebml v1.0.0 + libmatroska v1.0.0

Video
ID : 1
Format : AVC
Format/Info : Advanced Video Codec
Format profile : High@L4
Format settings, CABAC : Yes
Format settings, RefFrames : 4 frames
Codec ID : V_MPEG4/ISO/AVC
Duration : 44 min 16 s
Bit rate : 3 300 kb/s
Width : 1 920 pixels
Height : 960 pixels
Display aspect ratio : 2.000
Frame rate mode : Constant
Frame rate : 23.976 (24000/1001) FPS
Color space : YUV
Chroma subsampling : 4:2:0
Bit depth : 8 bits
Scan type : Progressive
Bits/(Pixel*Frame) : 0.075
Stream size : 1.02 GiB (88%)
Default : No
Forced : No
Color range : Limited
Color primaries : BT.709
Transfer characteristics : BT.709
Matrix coefficients : BT.709

Audio #1
ID : 2
Format : AC-3
Format/Info : Audio Coding 3
Format settings, Endianness : Big
Codec ID : A_AC3
Duration : 44 min 16 s
Bit rate mode : Constant
Bit rate : 192 kb/s
Channel(s) : 2 channels
Channel positions : Front: L R
Sampling rate : 48.0 kHz
Frame rate : 31.250 FPS (1536 SPF)
Bit depth : 16 bits
Compression mode : Lossy
Stream size : 60.8 MiB (5%)
Language : Russian
Service kind : Complete Main
Default : Yes
Forced : No

Audio #2
ID : 3
Format : AC-3
Format/Info : Audio Coding 3
Format settings, Endianness : Big
Codec ID : A_AC3
Duration : 44 min 16 s
Bit rate mode : Constant
Bit rate : 192 kb/s
Channel(s) : 2 channels
Channel positions : Front: L R
Sampling rate : 48.0 kHz
Frame rate : 31.250 FPS (1536 SPF)
Bit depth : 16 bits
Compression mode : Lossy
Stream size : 60.8 MiB (5%)
Language : English
Service kind : Complete Main
Default : No
Forced : No

Text
ID : 4
Format : UTF-8
Codec ID : S_TEXT/UTF8
Codec ID/Info : UTF-8 Plain Text
Title : SDH
Language : English
Default : No
Forced : No

Внимание! Раздача ведётся путём добавления новых серий

Внимание! Раздача ведётся путём добавления новых серий; при каждом добавлении создаётся новый торрент.
Чтобы начать докачку новой серии, пользователям необходимо сделать следующее:
1. Остановить скачивание;
2. Удалить старый торрент у себя из клиента (старые серии удалять не надо);
3. Скачать новый торрент и запустить его у себя в клиенте вместо старого, при этом указать клиенту путь в старую папку куда и должно происходить скачивание новых серий. Ваш клиент при этом должен произвести хеширование (проверку) старой папки и будет докачивать только те серии, которых у вас ещё нет. Старые серии при этом не удаляются, а продолжают раздаваться! Eсли вы уже удалили старые серии, то предотвратить повторную закачку старых серий можно, отжав галочку в соответствующих местах при запуске нового торрента.
Скриншоты:



Все одноименные релизы в Клубе

Смотреть Online

Детали торрента:
Название:Проект засекречен / Проект "Синяя книга" / Project Blue Book (2019) WEBRip [H.264/1080p-LQ] (сезон 1, серии 1 из 10) OMSKBIRD (обновляемая) [AD]
Дата добавления:09 Янв 2019 22:45:05
Размер:1,16 GB
Раздают:40
Качают:2
Форум:Зарубежные сериалы

All rights reserved © 2015-2019