TORRENTS45.XYZ

Скачать Путешественники / Travelers (2018) WEB-DL [H.264/1080p-LQ] (сезон 3, серии 1-3 из 10) TVShows (обновляемая)


Путешественники / Travelers (2018) WEB-DL [H.264/1080p-LQ] (сезон 3, серии 1-3 из 10) TVShows (обновляемая)
Производство: США, Канада / Peacock Alley Entertainment
Жанр: фантастика, триллер, драма, детектив

Режиссер: Энди Микита, Уильям Варинг, Мартин Вуд
Актеры: Неста Купер, Маккензи Портер, Джаред Абрахамсон, Рейли Долмэн, Эрик МакКормак, Патрик Гилмор, Леа Кейрнс, Дж. Алекс Бринсон, Уильям Макдональд, Дженнифер Спенс и др.

Описание:
Действие этого фантастического сериала разворачивается в далеком будущем. К тому времени жизнь человечества серьёзно изменилась. Практически всё живое на планете было уничтожено и это вынудило ученых искать способ, как исправить сложившуюся ситуацию. Среди людей осталось немного тех, кому по силам продолжать борьбу за существование. И вскоре было изобретено устройство, которое могло позволить переместить сознание в далекий двадцать первый век. Это давало оставшимся людям шанс вернуться в прошлое и попытаться спасти человечество от грядущей катастрофы...



Продолжительность: ~00:45:00 серия
Качество видео: WEB-DL
Перевод: Многоголосый закадровый, любительский (TVShows)
Субтитры: английские

Видео: AVC/H.264, 1920х1080, ~5800 Kbps
Аудио 1: AC3, 6 ch, 384 kbps - русский, многоголосый закадровый
Аудио 2: E-AC3, 6 ch, 640 kbps - английский

Mediainfo:


General
Unique ID : 99814715155521908626755508245190404151 (0x4B179D68D4D6965FB20E6699D67BE837)
Complete name : D:\Users\01\Downloads\Travelers.S03.1080p.TVShows\Travelers.S03E01.1080p.TVShows.mkv
Format : Matroska
Format version : Version 4 / Version 2
File size : 2.16 GiB
Duration : 45mn 45s
Overall bit rate mode : Variable
Overall bit rate : 6 761 Kbps
Encoded date : UTC 2018-12-26 08:46:23
Writing application : mkvmerge v29.0.0 ('Like It Or Not') 64-bit
Writing library : libebml v1.3.6 + libmatroska v1.4.9
DURATION : 00:45:45.248000000
NUMBER_OF_FRAMES : 85789
NUMBER_OF_BYTES : 131771904
_STATISTICS_WRITING_APP : mkvmerge v29.0.0 ('Like It Or Not') 64-bit
_STATISTICS_WRITING_DATE_UTC : 2018-12-26 08:46:23
_STATISTICS_TAGS : BPS DURATION NUMBER_OF_FRAMES NUMBER_OF_BYTES

Video
ID : 1
Format : AVC
Format/Info : Advanced Video Codec
Format profile : Main@L4.0
Format settings, CABAC : Yes
Format settings, ReFrames : 3 frames
Codec ID : V_MPEG4/ISO/AVC
Duration : 45mn 45s
Bit rate mode : Variable
Bit rate : 5 800 Kbps
Maximum bit rate : 8 700 Kbps
Width : 1 920 pixels
Height : 1 080 pixels
Display aspect ratio : 16:9
Frame rate mode : Constant
Frame rate : 23.976 fps
Color space : YUV
Chroma subsampling : 4:2:0
Bit depth : 8 bits
Scan type : Progressive
Bits/(Pixel*Frame) : 0.117
Stream size : 1.79 GiB (83%)
Writing library : x264 core 148 r2715 7e75228
Encoding settings : cabac=1 / ref=3 / deblock=1:0:0 / analyse=0x1:0x111 / me=umh / subme=10 / psy=1 / psy_rd=1.00:0.00 / mixed_ref=1 / me_range=24 / chroma_me=1 / trellis=2 / 8x8dct=0 / cqm=0 / deadzone=21,11 / fast_pskip=1 / chroma_qp_offset=-2 / threads=8 / lookahead_threads=1 / sliced_threads=0 / nr=0 / decimate=1 / interlaced=0 / bluray_compat=0 / stitchable=1 / constrained_intra=0 / bframes=2 / b_pyramid=0 / b_adapt=2 / b_bias=0 / direct=3 / weightb=1 / open_gop=0 / weightp=2 / keyint=48 / keyint_min=25 / scenecut=0 / intra_refresh=0 / rc_lookahead=48 / rc=2pass / mbtree=1 / bitrate=5800 / ratetol=1.0 / qcomp=0.50 / qpmin=6 / qpmax=51 / qpstep=4 / cplxblur=20.0 / qblur=0.5 / vbv_maxrate=8700 / vbv_bufsize=11600 / nal_hrd=vbr / filler=0 / ip_ratio=1.40 / aq=1:1.00
Default : Yes
Forced : No

Audio #1
ID : 2
Format : AC-3
Format/Info : Audio Coding 3
Mode extension : CM (complete main)
Format settings, Endianness : Big
Codec ID : A_AC3
Duration : 45mn 45s
Bit rate mode : Constant
Bit rate : 384 Kbps
Channel(s) : 6 channels
Channel positions : Front: L C R, Side: L R, LFE
Sampling rate : 48.0 KHz
Bit depth : 16 bits
Compression mode : Lossy
Stream size : 126 MiB (6%)
Title : TVShows
Language : Russian
Default : Yes
Forced : Yes

Audio #2
ID : 3
Format : E-AC-3
Format/Info : Audio Coding 3
Format settings, Endianness : Big
Codec ID : A_EAC3
Duration : 45mn 45s
Bit rate mode : Constant
Bit rate : 640 Kbps
Channel(s) : 6 channels
Channel positions : Front: L C R, Side: L R, LFE
Sampling rate : 48.0 KHz
Compression mode : Lossy
Stream size : 209 MiB (9%)
Title : Original
Language : English
Default : No
Forced : No

Text
ID : 4
Format : UTF-8
Codec ID : S_TEXT/UTF8
Codec ID/Info : UTF-8 Plain Text
Title : English
Language : English
Default : No
Forced : No

Внимание! Раздача ведётся путём добавления новых серий

Внимание! Раздача ведётся путём добавления новых серий; при каждом добавлении создаётся новый торрент.
Чтобы начать докачку новой серии, пользователям необходимо сделать следующее:
1. Остановить скачивание;
2. Удалить старый торрент у себя из клиента (старые серии удалять не надо);
3. Скачать новый торрент и запустить его у себя в клиенте вместо старого, при этом указать клиенту путь в старую папку куда и должно происходить скачивание новых серий. Ваш клиент при этом должен произвести хеширование (проверку) старой папки и будет докачивать только те серии, которых у вас ещё нет. Старые серии при этом не удаляются, а продолжают раздаваться! Eсли вы уже удалили старые серии, то предотвратить повторную закачку старых серий можно, отжав галочку в соответствующих местах при запуске нового торрента.
Скриншоты:


Все одноименные релизы в Клубе

Смотреть Online

Детали торрента:
Название:Путешественники / Travelers (2018) WEB-DL [H.264/1080p-LQ] (сезон 3, серии 1-3 из 10) TVShows (обновляемая)
Дата добавления:12 Янв 2019 18:00:58
Размер:6,69 GB
Раздают:11
Качают:0
Форум:Зарубежные сериалы

All rights reserved © 2015-2019