TORRENTS45.XYZ

Скачать Супермаркет / Superstore (2018) WEB-DL [H.264/1080p-LQ] (сезон 4, серии 1-7 из 22) TVShows (обновляемая)


Супермаркет / Superstore (2018) WEB-DL [H.264/1080p-LQ] (сезон 4, серии 1-7 из 22) TVShows (обновляемая)
Производство: США / District, The, Spitzer Holding Company, Universal Television
Жанр: комедия

Режиссер: Виктор Нелли мл., Рубен Фляйшер, Мэттью Сон
Актеры: Америка Феррера, Бен Фельдман, Лорен Эш, Колтон Данн, Нико Сантос, Марк МакКинни, Николь Блум, Дэнни Гура, Калико Кауахи

Описание:
Сериал о большом разношерстном коллективе работников гипермаркета, которые на своём рабочем месте переживают множество приключений, несмотря на то, что территория их обитания ограничивается стенами магазина.



Продолжительность: ~00:22:00 серия
Качество видео: WEB-DL
Перевод: Многоголосый закадровый, любительский (TVShows)
Субтитры: английские

Видео: AVC/H.264, 1920х1080, ~8400 Kbps
Аудио 1: AC3, 6 ch, 384 kbps - русский, многоголосый закадровый
Аудио 2: E-AC3, 6 ch, 640 kbps - английский

Mediainfo:


General
Unique ID : 51794726060180222856775089898107740309 (0x26F74D27C4A4247AA8AF2F57B6D4A095)
Complete name : D:\Users\01\Downloads\Superstore.S04.1080p.TVShows\Superstore.S04E01.1080p.TVShows.mkv
Format : Matroska
Format version : Version 4 / Version 2
File size : 1.44 GiB
Duration : 21mn 30s
Overall bit rate : 9 616 Kbps
Encoded date : UTC 2018-12-17 12:08:08
Writing application : mkvmerge v29.0.0 ('Like It Or Not') 64-bit
Writing library : libebml v1.3.6 + libmatroska v1.4.9
DURATION : 00:21:30.498000000
NUMBER_OF_FRAMES : 30941
NUMBER_OF_BYTES : 1385664024
_STATISTICS_WRITING_APP : mkvmerge v29.0.0 ('Like It Or Not') 64-bit
_STATISTICS_WRITING_DATE_UTC : 2018-12-17 12:08:08
_STATISTICS_TAGS : BPS DURATION NUMBER_OF_FRAMES NUMBER_OF_BYTES

Video
ID : 1
Format : AVC
Format/Info : Advanced Video Codec
Format profile : High@L4.0
Format settings, CABAC : Yes
Format settings, ReFrames : 4 frames
Codec ID : V_MPEG4/ISO/AVC
Duration : 21mn 30s
Bit rate : 8 401 Kbps
Width : 1 920 pixels
Height : 1 080 pixels
Display aspect ratio : 16:9
Frame rate mode : Constant
Frame rate : 23.976 fps
Color space : YUV
Chroma subsampling : 4:2:0
Bit depth : 8 bits
Scan type : Progressive
Bits/(Pixel*Frame) : 0.169
Stream size : 1.26 GiB (87%)
Default : Yes
Forced : No
Color primaries : BT.709
Transfer characteristics : BT.709
Matrix coefficients : BT.709

Audio #1
ID : 2
Format : AC-3
Format/Info : Audio Coding 3
Mode extension : CM (complete main)
Format settings, Endianness : Big
Codec ID : A_AC3
Duration : 21mn 30s
Bit rate mode : Constant
Bit rate : 384 Kbps
Channel(s) : 6 channels
Channel positions : Front: L C R, Side: L R, LFE
Sampling rate : 48.0 KHz
Bit depth : 16 bits
Compression mode : Lossy
Stream size : 59.1 MiB (4%)
Title : TVShows
Language : Russian
Default : Yes
Forced : Yes

Audio #2
ID : 3
Format : E-AC-3
Format/Info : Audio Coding 3
Format settings, Endianness : Big
Codec ID : A_EAC3
Duration : 21mn 30s
Bit rate mode : Constant
Bit rate : 640 Kbps
Channel(s) : 6 channels
Channel positions : Front: L C R, Side: L R, LFE
Sampling rate : 48.0 KHz
Compression mode : Lossy
Stream size : 98.5 MiB (7%)
Title : Original
Language : English
Default : No
Forced : No

Text
ID : 4
Format : UTF-8
Codec ID : S_TEXT/UTF8
Codec ID/Info : UTF-8 Plain Text
Title : English
Language : English
Default : No
Forced : No

Внимание! Раздача ведётся путём добавления новых серий

Внимание! Раздача ведётся путём добавления новых серий; при каждом добавлении создаётся новый торрент.
Чтобы начать докачку новой серии, пользователям необходимо сделать следующее:
1. Остановить скачивание;
2. Удалить старый торрент у себя из клиента (старые серии удалять не надо);
3. Скачать новый торрент и запустить его у себя в клиенте вместо старого, при этом указать клиенту путь в старую папку куда и должно происходить скачивание новых серий. Ваш клиент при этом должен произвести хеширование (проверку) старой папки и будет докачивать только те серии, которых у вас ещё нет. Старые серии при этом не удаляются, а продолжают раздаваться! Eсли вы уже удалили старые серии, то предотвратить повторную закачку старых серий можно, отжав галочку в соответствующих местах при запуске нового торрента.
Скриншоты:


Все одноименные релизы в Клубе

Смотреть Online

Детали торрента:
Название:Супермаркет / Superstore (2018) WEB-DL [H.264/1080p-LQ] (сезон 4, серии 1-7 из 22) TVShows (обновляемая)
Дата добавления:09 Янв 2019 15:26:54
Размер:9,85 GB
Раздают:3
Качают:0
Форум:Зарубежные сериалы

All rights reserved © 2015-2019