TORRENTS45.XYZ

Скачать Трудности ассимиляции / Понаехали! / Fresh Off the Boat (2018) WEB-DL [H.264/1080p-LQ] (сезон 5, серии 1-9 из 19) (TVShows) (обновляемая)


Трудности ассимиляции / Понаехали! / Fresh Off the Boat (2018) WEB-DL [H.264/1080p-LQ] (сезон 5, серии 1-9 из 19)
Производство: США / Fierce Baby Productions, Detective Agency, The, 20th Century Fox Television
Жанр: комедия

Режиссер: Линн Шелтон, Роберт Коэн, Джейк Кэздан
Актеры: Констанс Ву, Рэндолл Парк, Хадсон Янг, Форрест Вилер, Йен Чен, Люсиль Сунг, Пол Шеер, Джиллиан Арменанте, Джейк Шоу и др.

Описание:
В центре сюжета находится азиатско-американское семейство, живущее в 1990-х годах, которое переезжает из Вашингтона в Орландо, штат Флорида, чтобы открыть мясной ресторан. Этот переезд становится для них культурным шоком. Ведь в Орландо нет Чайна-тауна…



Продолжительность: ~00:25:00 серия
Качество видео: WEB-DL
Перевод: Многоголосый закадровый, любительский (TVShows)
Субтитры: английские

Видео: AVC/H.264, 1920x1080, ~9632 Kbps
Аудио: 1 AC3, 6 ch, 384 kbps - русский, многоголосый закадровый
Аудио: 2 E-AC3, 6 ch, 640 kbps - английский

Mediainfo:


Общее
Уникальный идентификатор : 66480457525316631358274963697638285807 (0x3203AB9E7264F3107CCE0E414A13A1EF)
Полное имя : I:\Тифайл\Fresh.Off.the.Boat.S05.1080p.TVShows\Fresh.Off.the.Boat.S05E01.1080p.TVShows.mkv
Формат : Matroska
Версия формата : Version 4 / Version 2
Размер файла : 1,60 Гбайт
Продолжительность : 21 м. 32 с.
Общий поток : 10,7 Мбит/сек
Дата кодирования : UTC 2018-12-14 12:11:53
Программа кодирования : mkvmerge v28.2.0 ('The Awakening') 32-bit
Библиотека кодирования : libebml v1.3.6 + libmatroska v1.4.9

Видео
Идентификатор : 1
Формат : AVC
Формат/Информация : Advanced Video Codec
Профиль формата : High@L4
Параметр CABAC формата : Да
Параметр ReFrames формата : 4 кадра
Идентификатор кодека : V_MPEG4/ISO/AVC
Продолжительность : 21 м. 32 с.
Битрейт : 9632 Кбит/сек
Ширина : 1920 пикселей
Высота : 1080 пикселей
Соотношение сторон : 16:9
Режим частоты кадров : Постоянный
Частота кадров : 23,976 (24000/1001) кадра/сек
Цветовое пространство : YUV
Субдискретизация насыщенности : 4:2:0
Битовая глубина : 8 бит
Тип развёртки : Прогрессивная
Бит/(Пиксели*Кадры) : 0.194
Размер потока : 1,45 Гбайт (90%)
Язык : English
Default : Да
Forced : Нет
Цветовой диапазон : Limited
Основные цвета : BT.709
Характеристики трансфера : BT.709
Коэффициенты матрицы : BT.709

Аудио #1
Идентификатор : 2
Формат : AC-3
Формат/Информация : Audio Coding 3
Параметр Endianness формата : Big
Идентификатор кодека : A_AC3
Продолжительность : 21 м. 32 с.
Вид битрейта : Постоянный
Битрейт : 384 Кбит/сек
Каналы : 6 каналов
Расположение каналов : Front: L C R, Side: L R, LFE
Частота : 48,0 КГц
Частота кадров : 31,250 кадров/сек (1536 spf)
Битовая глубина : 16 бит
Метод сжатия : С потерями
Размер потока : 59,2 Мбайт (4%)
Заголовок : TVShows
Язык : Russian
ServiceKind/String : Complete Main
Default : Да
Forced : Да

Аудио #2
Идентификатор : 3
Формат : E-AC-3
Формат/Информация : Enhanced Audio Coding 3
Параметр Endianness формата : Big
Идентификатор кодека : A_EAC3
Продолжительность : 21 м. 32 с.
Вид битрейта : Постоянный
Битрейт : 640 Кбит/сек
Каналы : 6 каналов
Расположение каналов : Front: L C R, Side: L R, LFE
Частота : 48,0 КГц
Частота кадров : 187,500 кадров/сек (256 spf)
Метод сжатия : С потерями
Размер потока : 98,6 Мбайт (6%)
Заголовок : Original
Язык : English
ServiceKind/String : Complete Main
Default : Нет
Forced : Нет

Текст
Идентификатор : 4
Формат : UTF-8
Идентификатор кодека : S_TEXT/UTF8
Идентификатор кодека/Информация : UTF-8 Plain Text
Продолжительность : 21 м. 22 с.
Битрейт : 109 бит/сек
ElementCount : 557
Размер потока : 17,1 Кбайт (0%)
Заголовок : English
Язык : English
Default : Нет
Forced : Нет

Внимание! Раздача ведётся путём добавления новых серий

Внимание! Раздача ведётся путём добавления новых серий; при каждом добавлении создаётся новый торрент.
Чтобы начать докачку новой серии, пользователям необходимо сделать следующее:
1. Остановить скачивание;
2. Удалить старый торрент у себя из клиента (старые серии удалять не надо);
3. Скачать новый торрент и запустить его у себя в клиенте вместо старого, при этом указать клиенту путь в старую папку куда и должно происходить скачивание новых серий. Ваш клиент при этом должен произвести хеширование (проверку) старой папки и будет докачивать только те серии, которых у вас ещё нет. Старые серии при этом не удаляются, а продолжают раздаваться! Eсли вы уже удалили старые серии, то предотвратить повторную закачку старых серий можно, отжав галочку в соответствующих местах при запуске нового торрента.
Скриншоты:


Все одноименные релизы в Клубе

Смотреть Online

Детали торрента:
Название:Трудности ассимиляции / Понаехали! / Fresh Off the Boat (2018) WEB-DL [H.264/1080p-LQ] (сезон 5, серии 1-9 из 19) (TVShows) (обновляемая)
Дата добавления:11 Янв 2019 16:07:32
Размер:12,5 GB
Раздают:3
Качают:1
Форум:Зарубежные сериалы

All rights reserved © 2015-2019