TORRENTS45.XYZ

Скачать Amy Cervini - No One Ever Tells You (2018) Anzic Records [FLAC|Lossless|tracks + .cue] <Jazz>


Amy Cervini - No One Ever Tells You (2018)
Жанр: Jazz
Издание: Anzic Records ‎– ANZ-0062
Продолжительность: 00:49:50

Кодек: FLAC
Битрейт: Lossless
Тип рипа: tracks + .cue

Треклист:
01. I Don't Know
02. God Will
03. No One Ever Tells You
04. The Surrey With The Fringe On Top
05. Please Be Kind
06. A Good Man Is Hard To Find
07. You Know Who!
08. Bye-Bye Country Boy
09. One For My Baby (And One More For The Road)
10. Hit The Road Jack

Отчёт EAC:


Exact Audio Copy V1.3 from 2. September 2016

EAC extraction logfile from 6. November 2018, 20:35

Amy Cervini / No One Ever Tells You

Used drive : PLDS DVD-RW DA8AESH Adapter: 1 ID: 0

Read mode : Secure
Utilize accurate stream : Yes
Defeat audio cache : Yes
Make use of C2 pointers : No

Read offset correction : 6
Overread into Lead-In and Lead-Out : No
Fill up missing offset samples with silence : Yes
Delete leading and trailing silent blocks : No
Null samples used in CRC calculations : Yes
Used interface : Native Win32 interface for Win NT & 2000
Gap handling : Appended to previous track

Used output format : User Defined Encoder
Selected bitrate : 1024 kBit/s
Quality : High
Add ID3 tag : No
Command line compressor : C:\Program Files (x86)\Exact Audio Copy\Flac\flac.exe
Additional command line options : -8 -e -p -V -T "ARTIST=%artist%" -T "TITLE=%title%" -T "ALBUM=%albumtitle%" -T "DATE=%year%" -T "TRACKNUMBER=%tracknr%" -T "GENRE=%genre%" -T "PERFORMER=%albuminterpret%" -T "COMPOSER=%composer%" %haslyrics%--tag-from-file=LYRICS="%lyricsfile%"%haslyrics% -T "ALBUMARTIST=%albumartist%" -T "DISCNUMBER=%cdnumber%" -T "TOTALDISCS=%totalcds%" -T "TOTALTRACKS=%numtracks%" -T "COMMENT=%comment%" %source% -o %dest%

TOC of the extracted CD

Track | Start | Length | Start sector | End sector
---------------------------------------------------------
1 | 0:00.00 | 5:09.74 | 0 | 23248
2 | 5:09.74 | 3:22.41 | 23249 | 38439
3 | 8:32.40 | 6:38.65 | 38440 | 68354
4 | 15:11.30 | 6:44.27 | 68355 | 98681
5 | 21:55.57 | 3:47.67 | 98682 | 115773
6 | 25:43.49 | 5:15.30 | 115774 | 139428
7 | 30:59.04 | 5:23.71 | 139429 | 163724
8 | 36:23.00 | 5:37.15 | 163725 | 189014
9 | 42:00.15 | 4:02.27 | 189015 | 207191
10 | 46:02.42 | 3:47.04 | 207192 | 224220

Track 1

Filename C:\EAC Rips\[2018] Amy Cervini - No One Ever Tells You (FLAC)\01 I Don't Know.wav

Pre-gap length 0:00:02.00

Peak level 96.9 %
Extraction speed 2.2 X
Track quality 100.0 %
Test CRC 7E8D8BEB
Copy CRC 7E8D8BEB
Track not present in AccurateRip database
Copy OK

Track 2

Filename C:\EAC Rips\[2018] Amy Cervini - No One Ever Tells You (FLAC)\02 God Will.wav

Peak level 96.3 %
Extraction speed 2.3 X
Track quality 100.0 %
Test CRC 3B8BF8A0
Copy CRC 3B8BF8A0
Track not present in AccurateRip database
Copy OK

Track 3

Filename C:\EAC Rips\[2018] Amy Cervini - No One Ever Tells You (FLAC)\03 No One Ever Tells You.wav

Pre-gap length 0:00:00.01

Peak level 96.9 %
Extraction speed 2.8 X
Track quality 100.0 %
Test CRC A64447F7
Copy CRC A64447F7
Track not present in AccurateRip database
Copy OK

Track 4

Filename C:\EAC Rips\[2018] Amy Cervini - No One Ever Tells You (FLAC)\04 The Surrey With The Fringe On Top.wav

Pre-gap length 0:00:00.01

Peak level 96.5 %
Extraction speed 2.8 X
Track quality 99.9 %
Test CRC 714D6C2B
Copy CRC 714D6C2B
Track not present in AccurateRip database
Copy OK

Track 5

Filename C:\EAC Rips\[2018] Amy Cervini - No One Ever Tells You (FLAC)\05 Please Be Kind.wav

Pre-gap length 0:00:00.01

Peak level 96.4 %
Extraction speed 3.1 X
Track quality 100.0 %
Test CRC 1C159D98
Copy CRC 1C159D98
Track not present in AccurateRip database
Copy OK

Track 6

Filename C:\EAC Rips\[2018] Amy Cervini - No One Ever Tells You (FLAC)\06 A Good Man Is Hard To Find.wav

Pre-gap length 0:00:00.01

Peak level 97.2 %
Extraction speed 3.0 X
Track quality 99.9 %
Test CRC BD6D7569
Copy CRC BD6D7569
Track not present in AccurateRip database
Copy OK

Track 7

Filename C:\EAC Rips\[2018] Amy Cervini - No One Ever Tells You (FLAC)\07 You Know Who!.wav

Pre-gap length 0:00:00.01

Peak level 96.7 %
Extraction speed 3.7 X
Track quality 100.0 %
Test CRC BA5A6FA4
Copy CRC BA5A6FA4
Track not present in AccurateRip database
Copy OK

Track 8

Filename C:\EAC Rips\[2018] Amy Cervini - No One Ever Tells You (FLAC)\08 Bye-Bye Country Boy.wav

Pre-gap length 0:00:00.01

Peak level 96.8 %
Extraction speed 3.9 X
Track quality 100.0 %
Test CRC F872FD50
Copy CRC F872FD50
Track not present in AccurateRip database
Copy OK

Track 9

Filename C:\EAC Rips\[2018] Amy Cervini - No One Ever Tells You (FLAC)\09 One For My Baby (and One More for the Road).wav

Pre-gap length 0:00:00.01

Peak level 96.3 %
Extraction speed 3.2 X
Track quality 99.9 %
Test CRC 21483F68
Copy CRC 21483F68
Track not present in AccurateRip database
Copy OK

Track 10

Filename C:\EAC Rips\[2018] Amy Cervini - No One Ever Tells You (FLAC)\10 Hit The Road Jack.wav

Pre-gap length 0:00:00.01

Peak level 96.7 %
Extraction speed 3.2 X
Track quality 99.9 %
Test CRC A0F4837B
Copy CRC A0F4837B
Track not present in AccurateRip database
Copy OK

None of the tracks are present in the AccurateRip database

No errors occurred

End of status report

---- CUETools DB Plugin V2.1.6

[CTDB TOCID: cNrdrbk9KYO8oEof4wzJB6dv6Ks-] disk not present in database
Submit result: cNrdrbk9KYO8oEof4wzJB6dv6Ks- has been uploaded

==== Log checksum 0A9EA2CB0028BB30063EE6710384DD6649E38D73F3D2F7D2B35864EED3B2A98E ====

Cue Sheet (.cue):


REM GENRE Jazz
REM DATE 2018
REM DISCID 770BAD0A
REM COMMENT "ExactAudioCopy v1.3"
CATALOG 0602573419946
PERFORMER "Amy Cervini"
TITLE "No One Ever Tells You"
FILE "01 - I Don't Know.wav" WAVE
TRACK 01 AUDIO
TITLE "I Don't Know"
PERFORMER "Amy Cervini"
ISRC USY871800001
INDEX 01 00:00:00
FILE "02 - God Will.wav" WAVE
TRACK 02 AUDIO
TITLE "God Will"
PERFORMER "Amy Cervini"
ISRC USY871800002
INDEX 01 00:00:00
TRACK 03 AUDIO
TITLE "No One Ever Tells You"
PERFORMER "Amy Cervini"
ISRC USY871800003
INDEX 00 03:22:40
FILE "03 - No One Ever Tells You.wav" WAVE
INDEX 01 00:00:00
TRACK 04 AUDIO
TITLE "The Surrey with the Fringe on Top"
PERFORMER "Amy Cervini"
ISRC USY871800004
INDEX 00 06:38:64
FILE "04 - The Surrey with the Fringe on Top.wav" WAVE
INDEX 01 00:00:00
TRACK 05 AUDIO
TITLE "Please Be Kind"
PERFORMER "Amy Cervini"
ISRC USY871800005
INDEX 00 06:44:26
FILE "05 - Please Be Kind.wav" WAVE
INDEX 01 00:00:00
TRACK 06 AUDIO
TITLE "A Good Man Is Hard to Find"
PERFORMER "Amy Cervini"
ISRC USY871800006
INDEX 00 03:47:66
FILE "06 - A Good Man Is Hard to Find.wav" WAVE
INDEX 01 00:00:00
TRACK 07 AUDIO
TITLE "You Know Who!"
PERFORMER "Amy Cervini"
ISRC USY871800007
INDEX 00 05:15:29
FILE "07 - You Know Who!.wav" WAVE
INDEX 01 00:00:00
TRACK 08 AUDIO
TITLE "Bye-Bye Country Boy"
PERFORMER "Amy Cervini"
ISRC USY871800008
INDEX 00 05:23:70
FILE "08 - Bye-Bye Country Boy.wav" WAVE
INDEX 01 00:00:00
TRACK 09 AUDIO
TITLE "One for My Baby (And One More for the Road)"
PERFORMER "Amy Cervini"
ISRC USY871800009
INDEX 00 05:37:14
FILE "09 - One for My Baby (And One More for the Road).wav" WAVE
INDEX 01 00:00:00
TRACK 10 AUDIO
TITLE "Hit the Road Jack"
PERFORMER "Amy Cervini"
ISRC USY871800010
INDEX 00 04:02:26
FILE "10 - Hit the Road Jack.wav" WAVE
INDEX 01 00:00:00

Отчёт auCDtect Task manager:


-----------------------

DON'T MODIFY THIS FILE

-----------------------

PERFORMER: auCDtect Task Manager, ver. 1.6.0 RC1 build 1.6.0.1
Copyright (c) 2008-2010 y-soft. All rights reserved
http://y-soft.org

ANALYZER: auCDtect: CD records authenticity detector, version 0.8.2
Copyright (c) 2004 Oleg Berngardt. All rights reserved.
Copyright (c) 2004 Alexander Djourik. All rights reserved.

FILE: 05 - Please Be Kind.flac
Size: 21901224 Hash: 103C8A3FC2EA298262E1CEF0653F215E Accuracy: -m0
Conclusion: CDDA 99%
Signature: 6C75FFDF2FBC7E07874B34B1E728AE115900887A
FILE: 04 - The Surrey with the Fringe on Top.flac
Size: 32437389 Hash: AFAFC468E3B9FCF5FC195EBBE7FFFDC2 Accuracy: -m0
Conclusion: CDDA 100%
Signature: 4870A04B776B21C6B1B6297D0DEBD35438C26E74
FILE: 03 - No One Ever Tells You.flac
Size: 41816280 Hash: 5E9D0111B92DB8E3040D2F8A4120E9AE Accuracy: -m0
Conclusion: CDDA 100%
Signature: 56475DA13C85704ED826271B3E57C01B073121AB
FILE: 02 - God Will.flac
Size: 17147692 Hash: 0D5145EE6671FC6001832479CFEF2710 Accuracy: -m0
Conclusion: CDDA 99%
Signature: 60823611B9E30BB49E5ED7CBF81825558AC748C9
FILE: 01 - I Don't Know.flac
Size: 30633854 Hash: BF95DD744B95355088FB174E833A2D23 Accuracy: -m0
Conclusion: CDDA 100%
Signature: CFEB35682ED40F26D797E67C3A4EB8E1143CACAB
FILE: 10 - Hit the Road Jack.flac
Size: 20578984 Hash: B5E21E9BB4D41BEA1C1A11BDB3ED1703 Accuracy: -m0
Conclusion: CDDA 100%
Signature: 2E2B59F4C73E88D3B84AB7FDD7CC70E945D831B6
FILE: 09 - One for My Baby (And One More for the Road).flac
Size: 14941307 Hash: 6880D1D6C44C2ED009B76849AC6A7869 Accuracy: -m0
Conclusion: CDDA 100%
Signature: 2E7FBFC2E253CDCA2B378D5620004138D7052CA4
FILE: 08 - Bye-Bye Country Boy.flac
Size: 28477062 Hash: D24EF4C58ACF42F915A5C060735BBE5F Accuracy: -m0
Conclusion: CDDA 100%
Signature: FECA3FDB6BFAECE35C141E1ED5F3017D1FD46002
FILE: 07 - You Know Who!.flac
Size: 25574608 Hash: 63F157D616DA8737BB2E665EBD85D76D Accuracy: -m0
Conclusion: CDDA 99%
Signature: 4C83016032BCD737527EEEF7ED9128C94BC03FC8
FILE: 06 - A Good Man Is Hard to Find.flac
Size: 30374037 Hash: 39DC4B1EC19F7C36B499E37349041190 Accuracy: -m0
Conclusion: CDDA 100%
Signature: 5C1A222B603371FFF2DF8290758BC280AB746AF2
YouTube
Детали торрента:
Название:Amy Cervini - No One Ever Tells You (2018) Anzic Records [FLAC|Lossless|tracks + .cue] <Jazz>
Дата добавления:20 Дек 2018 22:45:01
Размер:253 MB
Раздают:6
Качают:0
Форум:Jazz (Lossless)

All rights reserved © 2015-2019