TORRENTS45.XYZ

Скачать Big Bad Voodoo Daddy - Louie Louie Louie (2017) Savoy Jazz [FLAC|Lossless|image + .cue] <Swing>


Big Bad Voodoo Daddy - Louie Louie Louie (2017)
Жанр: Swing
Издание: Savoy Jazz - SVY16133
Продолжительность: 00:43:06

Кодек: FLAC
Битрейт: Lossless
Тип рипа: image + .cue
Источник (релизер): Boris1

Треклист:
01. Dinah (02:53)
02. Oh, Marie (02:39)
03. Is You Is, Or Is You Ain't My Baby (04:04)
04. Jack, You Dead (03:17)
05. Whistle Stop (02:30)
06. Choo Choo Ch'boogie (02:56)
07. Basin Street Blues (03:44)
08. Jump, Jive, An' Wail (03:52)
09. Knock Me A Kiss (02:47)
10. Struttin' With Some Barbeque (03:54)
11. Five Months, Two Weeks, Two Days (02:28)
12. Ain't Nobody Here But Us Chickens (03:20)
13. When The Saints Come Marching Home (04:32)

Отчёт EAC:


Exact Audio Copy V1.0 beta 3 from 29. August 2011

EAC extraction logfile from 30. June 2017, 23:52

Big Bad Voodoo Daddy / Louie Louie Louie

Used drive : PIONEER BD-RW BDR-TD03 Adapter: 0 ID: 1

Read mode : Secure
Utilize accurate stream : Yes
Defeat audio cache : Yes
Make use of C2 pointers : No

Read offset correction : 667
Overread into Lead-In and Lead-Out : No
Fill up missing offset samples with silence : Yes
Delete leading and trailing silent blocks : No
Null samples used in CRC calculations : Yes
Used interface : Native Win32 interface for Win NT & 2000

Used output format : User Defined Encoder
Selected bitrate : 768 kBit/s
Quality : High
Add ID3 tag : No
Command line compressor : C:\Program Files (x86)\Exact Audio Copy\FLAC\FLAC.EXE
Additional command line options : -6 -V -T "ARTIST=%artist%" -T "TITLE=%title%" -T "ALBUM=%albumtitle%" -T "DATE=%year%" -T "TRACKNUMBER=%tracknr%" -T "GENRE=%genre%" -T "COMMENT=%comment%" -T "BAND=%albuminterpret%" -T "ALBUMARTIST=%albuminterpret%" -T "COMPOSER=%composer%" %haslyrics%--tag-from-file=LYRICS="%lyricsfile%"%haslyrics% -T "DISCNUMBER=%cdnumber%" -T "TOTALDISCS=%totalcds%" -T "TOTALTRACKS=%numtracks%" %hascover%--picture="%coverfile%"%hascover% %source% -o %dest%

TOC of the extracted CD

Track | Start | Length | Start sector | End sector
---------------------------------------------------------
1 | 0:00.12 | 2:54.43 | 12 | 13104
2 | 2:54.55 | 2:41.57 | 13105 | 25236
3 | 5:36.37 | 4:04.38 | 25237 | 43574
4 | 9:41.00 | 3:18.70 | 43575 | 58494
5 | 12:59.70 | 2:31.22 | 58495 | 69841
6 | 15:31.17 | 2:59.11 | 69842 | 83277
7 | 18:30.28 | 3:44.36 | 83278 | 100113
8 | 22:14.64 | 3:53.37 | 100114 | 117625
9 | 26:08.26 | 2:48.14 | 117626 | 130239
10 | 28:56.40 | 3:55.08 | 130240 | 147872
11 | 32:51.48 | 2:29.46 | 147873 | 159093
12 | 35:21.19 | 3:19.72 | 159094 | 174090
13 | 38:41.16 | 4:31.22 | 174091 | 194437

Range status and errors

Selected range

Filename C:\Users\Deris\Desktop\kpnemo.eu\BBVD17\Big Bad Voodoo Daddy - Louie Louie Louie.wav

Peak level 100.0 %
Extraction speed 4.4 X
Range quality 100.0 %
Test CRC 623FAB0D
Copy CRC 623FAB0D
Copy OK

No errors occurred

AccurateRip summary

Track 1 not present in database
Track 2 not present in database
Track 3 not present in database
Track 4 not present in database
Track 5 not present in database
Track 6 not present in database
Track 7 not present in database
Track 8 not present in database
Track 9 not present in database
Track 10 not present in database
Track 11 not present in database
Track 12 not present in database
Track 13 not present in database

None of the tracks are present in the AccurateRip database

End of status report

---- CUETools DB Plugin V2.1.3

[CTDB TOCID: 8KyjPnQCFi7.VqQxtPYbQCvqwPI-] found, Submit result: discs with pregaps not supported in this protocol version
[3870c27c] (4/4) Differs in 11650 samples @00:00:11-00:00:21
You can use CUETools to repair this rip.

==== Log checksum ED530AA636A7E1184B876645DAB87009CC66092EF7CC59C8DDE8EDD26299839E ====

Cue Sheet (.cue):


REM GENRE Swing
REM DATE 2017
REM DISCID A50A200D
REM COMMENT "ExactAudioCopy v1.0b3"
PERFORMER "Big Bad Voodoo Daddy"
TITLE "Louie Louie Louie"
FILE "Big Bad Voodoo Daddy - Louie Louie Louie.flac" WAVE
TRACK 01 AUDIO
TITLE "Dinah"
PERFORMER "Big Bad Voodoo Daddy"
INDEX 00 00:00:00
INDEX 01 00:00:12
TRACK 02 AUDIO
TITLE "Oh,Marie"
PERFORMER "Big Bad Voodoo Daddy"
INDEX 00 02:53:38
INDEX 01 02:54:55
TRACK 03 AUDIO
TITLE "Is You Is, or Is You Ain't My Baby"
PERFORMER "Big Bad Voodoo Daddy"
INDEX 00 05:33:66
INDEX 01 05:36:37
TRACK 04 AUDIO
TITLE "Jack, You Dead"
PERFORMER "Big Bad Voodoo Daddy"
INDEX 00 09:40:36
INDEX 01 09:41:00
TRACK 05 AUDIO
TITLE "Whistle Stop"
PERFORMER "Big Bad Voodoo Daddy"
INDEX 00 12:57:53
INDEX 01 12:59:70
TRACK 06 AUDIO
TITLE "Choo Choo Ch'boogie"
PERFORMER "Big Bad Voodoo Daddy"
INDEX 00 15:30:19
INDEX 01 15:31:17
TRACK 07 AUDIO
TITLE "Basin Street Blues"
PERFORMER "Big Bad Voodoo Daddy"
INDEX 00 18:27:37
INDEX 01 18:30:28
TRACK 08 AUDIO
TITLE "Jump, Jive, an' Wail"
PERFORMER "Big Bad Voodoo Daddy"
INDEX 00 22:14:27
INDEX 01 22:14:64
TRACK 09 AUDIO
TITLE "Knock Me a Kiss"
PERFORMER "Big Bad Voodoo Daddy"
INDEX 00 26:06:58
INDEX 01 26:08:26
TRACK 10 AUDIO
TITLE "Struttin' with Some Barbeque"
PERFORMER "Big Bad Voodoo Daddy"
INDEX 00 28:55:24
INDEX 01 28:56:40
TRACK 11 AUDIO
TITLE "Five Months, Two Weeks, Two Days"
PERFORMER "Big Bad Voodoo Daddy"
INDEX 00 32:50:38
INDEX 01 32:51:48
TRACK 12 AUDIO
TITLE "Ain't Nobody Here but Us Chickens"
PERFORMER "Big Bad Voodoo Daddy"
INDEX 00 35:19:68
INDEX 01 35:21:19
TRACK 13 AUDIO
TITLE "When the Saints Come Marching Home"
PERFORMER "Big Bad Voodoo Daddy"
INDEX 00 38:41:07
INDEX 01 38:41:16

Отчёт auCDtect Task manager:


-----------------------

DON'T MODIFY THIS FILE

-----------------------

PERFORMER: auCDtect Task Manager, ver. 1.6.0 RC1 build 1.6.0.1
Copyright (c) 2008-2010 y-soft. All rights reserved
http://y-soft.org

ANALYZER: auCDtect: CD records authenticity detector, version 0.8.2
Copyright (c) 2004 Oleg Berngardt. All rights reserved.
Copyright (c) 2004 Alexander Djourik. All rights reserved.

FILE: Big Bad Voodoo Daddy - Louie Louie Louie.flac
Size: 288667418 Hash: 2E0346487411AAB36FD84DB8DCE5F475 Accuracy: -m0
Conclusion: CDDA 100%
Signature: 337B4A231A5FDCB3893D7C3B9461E4D04872907D
Детали торрента:
Название:Big Bad Voodoo Daddy - Louie Louie Louie (2017) Savoy Jazz [FLAC|Lossless|image + .cue] <Swing>
Дата добавления:15 Дек 2018 22:18:19
Размер:356 MB
Раздают:7
Качают:0
Форум:Jazz (Lossless)

All rights reserved © 2015-2019