TORRENTS45.XYZ

Скачать Одарённые / The Gifted (2018) WEB-DL [H.264/1080p-LQ] (сезон 2, серии 1-11 из 15) LostFilm, FOX (обновляемая)


Одарённые / The Gifted (2018) WEB-DL [H.264/1080p-LQ] (сезон 2, серии 1-11 из 15)«You can't escape what you are»
Производство: США | Marvel TV, Walt Disney TV, Twentieth Century Fox TV
Жанр: фантастика, фэнтэзи, боевик, драма

Режиссер: Скотт Питерс, Стивен ДеПол
Актеры: Стивен Мойер, Эми Акер, Шон Тил, Натали Элин Линд, Перси Хайнс Уайт, Коби Белл, Джейми Чанг, Блэр Редфорд, Эмма Дюмон, Хейли Ловитт и др.

Описание:
Сюжет строится вокруг двух обычных родителей, чьи дети открывают в себе сверхъестественные способности. Семья вынуждена скрываться от правительства, недружелюбно настроенного по отношению к юным мутантам, и присоединяется к подпольной организации суперлюдей.


Возраст: 16+ (зрителям, достигшим 16 лет)

Продолжительность: ~00:45:00 серия
Качество видео: WEB-DL
Перевод: Многоголосый закадровый, профессиональный (LostFilm, FOX)
Субтитры: английские

Видео: AVC/H.264, 1920x1080 (16:9), ~6266 kbps
Аудио 1: AC3, 6 ch, 640 kbps - русский, многоголосый закадровый (LostFilm)
Аудио 2: AC3, 2 ch, 192 kbps - русский, многоголосый закадровый (FOX)
Аудио 3: EAC3, 6 ch, 640 kbps - английский

Mediainfo:


General
Unique ID : 278509331143138872941595867566519490598 (0xD186F2313FCBA3EE2AEEE502C9261826)
Complete name : D:\The_Gifted_S02_2018_WEB-DL_1080p_Lost_Fox\The_Gifted_S02_2018_WEB-DL_1080p_Lost_Fox_01.mkv
Format : Matroska
Format version : Version 4
File size : 2.40 GiB
Duration : 44 min 26 s
Overall bit rate : 7 741 kb/s
Movie name : Появление
Encoded date : UTC 2018-10-03 08:15:07
Writing application : mkvmerge v26.0.0 ('In The Game') 32-bit
Writing library : libebml v1.3.6 + libmatroska v1.4.9
Cover : Yes
Attachments : cover.the.gifted.jpg

Video
ID : 1
Format : AVC
Format/Info : Advanced Video Codec
Format profile : High@L4
Format settings : CABAC / 4 Ref Frames
Format settings, CABAC : Yes
Format settings, ReFrames : 4 frames
Codec ID : V_MPEG4/ISO/AVC
Duration : 44 min 26 s
Bit rate : 6 266 kb/s
Width : 1 920 pixels
Height : 1 080 pixels
Display aspect ratio : 16:9
Frame rate mode : Constant
Frame rate : 23.976 (24000/1001) FPS
Color space : YUV
Chroma subsampling : 4:2:0
Bit depth : 8 bits
Scan type : Progressive
Bits/(Pixel*Frame) : 0.126
Stream size : 1.95 GiB (81%)
Language : English
Default : Yes
Forced : No
Color range : Limited
Color primaries : BT.709
Transfer characteristics : BT.709
Matrix coefficients : BT.709

Audio #1
ID : 2
Format : AC-3
Format/Info : Audio Coding 3
Commercial name : Dolby Digital
Codec ID : A_AC3
Duration : 44 min 26 s
Bit rate mode : Constant
Bit rate : 640 kb/s
Channel(s) : 6 channels
Channel layout : L R C LFE Ls Rs
Sampling rate : 48.0 kHz
Frame rate : 31.250 FPS (1536 SPF)
Bit depth : 16 bits
Compression mode : Lossy
Stream size : 203 MiB (8%)
Title : AC3 5.1 @ 640 kbps - MVO, LostFilm
Language : Russian
Service kind : Complete Main
Default : Yes
Forced : No

Audio #2
ID : 3
Format : AC-3
Format/Info : Audio Coding 3
Commercial name : Dolby Digital
Codec ID : A_AC3
Duration : 44 min 26 s
Bit rate mode : Constant
Bit rate : 192 kb/s
Channel(s) : 2 channels
Channel layout : L R
Sampling rate : 48.0 kHz
Frame rate : 31.250 FPS (1536 SPF)
Bit depth : 16 bits
Compression mode : Lossy
Stream size : 61.0 MiB (2%)
Title : AC3 2.0 @ 192 kbps - MVO, FOX
Language : Russian
Service kind : Complete Main
Default : No
Forced : No

Audio #3
ID : 4
Format : E-AC-3
Format/Info : Enhanced AC-3
Commercial name : Dolby Digital Plus
Codec ID : A_EAC3
Duration : 44 min 26 s
Bit rate mode : Constant
Bit rate : 640 kb/s
Channel(s) : 6 channels
Channel layout : L R C LFE Ls Rs
Sampling rate : 48.0 kHz
Frame rate : 31.250 FPS (1536 SPF)
Compression mode : Lossy
Stream size : 203 MiB (8%)
Title : E-AC3 5.1 @ 640 kbps - Original
Language : English
Service kind : Complete Main
Default : No
Forced : No

Text
ID : 5
Format : UTF-8
Codec ID : S_TEXT/UTF8
Codec ID/Info : UTF-8 Plain Text
Duration : 44 min 24 s
Bit rate : 71 b/s
Count of elements : 821
Stream size : 23.3 KiB (0%)
Title : SDH
Language : English
Default : No
Forced : No

Раздача ведётся путём добавления новых серий:

Чтобы начать докачку новой серии, пользователям необходимо сделать следующее:
1. Остановить скачивание;
2. Удалить старый торрент у себя из клиента (старые серии удалять не надо);
3. Скачать новый торрент и запустить его у себя в клиенте вместо старого, при этом указать клиенту путь в старую папку куда и должно происходить скачивание новых серий. Ваш клиент при этом должен произвести хеширование (проверку) старой папки и будет докачивать только те серии, которых у вас ещё нет. Старые серии при этом не удаляются, а продолжают раздаваться! Eсли вы уже удалили старые серии, то предотвратить повторную закачку старых серий можно, отжав галочку в соответствующих местах при запуске нового торрента.
Скриншоты:


Все одноименные релизы в Клубе

Смотреть Online

Детали торрента:
Название:Одарённые / The Gifted (2018) WEB-DL [H.264/1080p-LQ] (сезон 2, серии 1-11 из 15) LostFilm, FOX (обновляемая)
Дата добавления:11 Янв 2019 12:46:11
Размер:27,4 GB
Раздают:6
Качают:8
Форум:Зарубежные сериалы

All rights reserved © 2015-2019