TORRENTS45.XYZ

Скачать Позвоните Мышкину (2018) WEB-DLRip [AD]


Позвоните Мышкину (2018) WEB-DLRip
Производство: Россия / ООО "ТПО "РОК"
Жанр: Комедия

Режиссер: Илья Казанков
Актеры: Михаил Трухин, Ярослава Базаева, Ирина Пегова, Михаил Пореченков, Иван Ефремов, Василий Юркевич, Маша Уросова, Полина Руденко, Елена Валюшкина

Описание:
Ермак Мышкин — крайне неуверенный в себе человек, который всю жизнь хотел стать актёром. Помочь в исполнении его мечты берётся 8-летняя девочка Даша, которая преследует и свои цели: ей очень хочется выйти из тени своей звёздной мамы, ведь та не обращает на дочь никакого внимания. Даша предлагает Ермаку отправиться из Петербурга в Москву на кастинг нового мюзикла, при этом «путешествие» должно выглядеть так, будто Ермак похитил девочку…


Дата премьеры в России: 3 декабря 2018

Продолжительность: 01:20:48
Качество видео: WEB-DLRip
Перевод: Не требуется (русский)
Субтитры: Отсутствуют
Реклама: Присутствуют вставки текстовой рекламы

Видео: XviD, 720x384, ~1983 Kbps
Аудио: AC-3, 2 ch, 384 Kbps

MediaInfo:


Общее
Полное имя : E:\NNM\Позвоните Мышкину\Pozvonite Myshkinu 2018 WEB-DLRip.avi
Формат : AVI
Формат/Информация : Audio Video Interleave
Профиль формата : OpenDML
Размер файла : 1,34 Гбайт
Продолжительность : 1 ч. 20 м.
Общий поток : 2380 Кбит/сек

Видео
Идентификатор : 0
Формат : MPEG-4 Visual
Профиль формата : Advanced Simple@L5
Настройки формата : BVOP1
Параметр BVOP формата : 1
Параметр QPel формата : Нет
Параметр GMC формата : Без точки перехода
Параметр матрицы формата : Default (H.263)
Идентификатор кодека : XVID
Идентификатор кодека/Подсказка : XviD
Продолжительность : 1 ч. 20 м.
Битрейт : 1983 Кбит/сек
Ширина : 720 пикселей
Высота : 384 пикселя
Соотношение сторон : 1,85:1
Частота кадров : 23,976 (24000/1001) кадра/сек
Цветовое пространство : YUV
Субдискретизация насыщенности : 4:2:0
Битовая глубина : 4 бит
Тип развёртки : Прогрессивная
Метод сжатия : С потерями
Бит/(Пиксели*Кадры) : 0.299
Размер потока : 1,12 Гбайт (83%)
Библиотека кодирования : XviD 1.2.1 (UTC 2008-12-04)

Аудио
Идентификатор : 1
Формат : AC-3
Формат/Информация : Audio Coding 3
Идентификатор кодека : 2000
Продолжительность : 1 ч. 20 м.
Вид битрейта : Постоянный
Битрейт : 384 Кбит/сек
Каналы : 2 канала
Расположение каналов : Front: L R
Частота : 48,0 КГц
Частота кадров : 31,250 кадров/сек (1536 SPF)
Битовая глубина : 16 бит
Метод сжатия : С потерями
Размер потока : 222 Мбайт (16%)
Выравнивание : Соединение по промежуткам
Продолжительность промежутка : 32 мс. (0,77 видеокадр)
ServiceKind/String : Complete Main
Скриншоты:


Все одноименные релизы в Клубе
Детали торрента:
Название:Позвоните Мышкину (2018) WEB-DLRip [AD]
Дата добавления:06 Дек 2018 19:12:33
Размер:1,34 GB
Раздают:19
Качают:2
Форум:Новинки с Рекламой

All rights reserved © 2015-2019