TORRENTS45.XYZ

Скачать Оцепеневшие от страха / Aterrados (2018) WEB-DL [1080p] ATV


Оцепеневшие от страха / Aterrados (2018) WEB-DL [1080p] ATV
«Кто остановит вторжение из астрала?»

Производство: Аргентина
Жанр: Ужасы
Продолжительность: 01:27:41

Перевод: Дублированный (iTunes)
Субтитры: Нет
Режиссер: Демиан Рунья
Актеры: Максимилиано Гионе, Норберто Гонсало, Эльвира Онетто, Агустин Риттано, Демиан Саломон, Джордж Л. Льюис, Джульета Валлина, Арьель Чаваррия, Уго Албрич, Наталия Сеньоралес

Мировая премьера: 27 октября 2017



Описание: Леденящие душу жуткие события сотрясают пригородное местечко, где соседствуют три уютных домика. Неведомая и невидимая сила зверски убивает женщину на глазах мужа. Ночью у кровати его соседа появляется ужасный монстр. А мальчик из дома напротив, погибший под колесами автомобиля, возвращается с кладбища и садится за кухонный стол. Искать причину необъяснимых кошмаров берутся три специалиста по паранормальным явлениям и детектив из отдела по расследованию убийств.
Качество: WEB-DL 1080p
Контейнер: M4V
Видео: H.264, 1920x858, 2.25:1, 4 619 Kbps, 24.000 fps

Аудио 1: Русский/Дублированный (iTunes), AAC LC / 2.0 / 160 Kbps / 48.0 KHz
Аудио 2: Русский/Дублированный (iTunes), AC-3 / 5.1 / 384 Kbps / 48.0 KHz

iTunes Meta Tags

Код: выделить все

Sort Name: Оцепеневшие от страха
XID: Apple:vendor_id:2018-1068448
contentID: 1440558785
Copyright: © 2018 Cinema Pretige
Screenwriters: Демиан Рунья
Producers: Раймундо Бассано, Фернандо Диас, Андреа Клюгер
Director: Демиан Рунья
Cast: Максимилиано Гионе, Норберто Гонсало, Эльвира Онетто, Агустин Риттано, Демиан Саломон, Джордж Л. Льюис, Джульета Валлина, Арьель Чаваррия, Уго Албрич, Наталия Сеньоралес и др.
Studio: Instituto Nacional de Cine y Artes Audiovisuales (INCAA), Machaco Films
Rating: 135
Long Description: Леденящие душу жуткие события сотрясают пригородное местечко, где соседствуют три уютных домика. Неведомая и невидимая сила зверски убивает женщину на глазах мужа. Ночью у кровати его соседа появляется ужасный монстр. А мальчик из дома напротив, погибший под колесами автомобиля, возвращается с кладбища и садится за кухонный стол. Искать причину необъяснимых кошмаров берутся три специалиста по паранормальным явлениям и детектив из отдела по расследованию убийств.
Description: Леденящие душу жуткие события сотрясают пригородное местечко, где соседствуют три уютных домика. Неведомая и невидимая сила зверски убивает женщину на глазах мужа. Ночью у кровати его соседа появляется ужасный монстр. А мальчик из дома напротив, погибший под колесами автомобиля, возвращается с кладбища и садится за кухонный стол.
Release Date: 2018-11-15T08:00:00Z
Genre: Ужасы
Artist: Демиан Рунья
Name: Оцепеневшие от страха

MediaInfo

Код: выделить все

General
Complete name                            : /Users/imac/HandBrake/Aterrados.WEB-DL.1080p.m4v
Format                                   : MPEG-4
Codec ID                                 : M4V  (M4V /M4A /mp42/isom)
File size                                : 3.16 GiB
Duration                                 : 1h 27mn
Overall bit rate mode                    : Variable
Overall bit rate                         : 5 162 Kbps
Movie name                               : Оцепеневшие от страха
Performer                                : Демиан Рунья
Director                                 : Демиан Рунья
Actor                                    : Максимилиано Гионе / Норберто Гонсало / Эльвира Онетто / Агустин Риттано / Демиан Саломон / Джордж Л. Льюис / Джульета Валлина / Арьель Чаваррия / Уго Албрич / Наталия Сеньоралес и др.
Screenplay by                            : Демиан Рунья
Producer                                 : Раймундо Бассано / Фернандо Диас / Андреа Клюгер
Production studio                        : Instituto Nacional de Cine y Artes Audiovisuales (INCAA), Machaco Films
Genre                                    : Ужасы
ContentType                              : Short Film
Description                              : Леденящие душу жуткие события сотрясают пригородное местечко, где соседствуют три уютных домика. Неведомая и невидимая сила зверски убивает женщину на глазах мужа. Ночью у кровати его соседа появляется ужасный монстр. А мальчик из дома напротив, погибший под колесами автомобиля, возвращается с кладбища и садится за кухонный стол.
Recorded date                            : UTC 2018-11-15 08:00:00
Encoded date                             : UTC 2018-12-06 15:36:55
Tagged date                              : UTC 2018-12-06 15:40:12
Copyright                                : © 2018 Cinema Pretige
Cover                                    : Yes
Rating                                   : None
Title/Sort                               : Оцепеневшие от страха
LongDescription                          : Леденящие душу жуткие события сотрясают пригородное местечко, где соседствуют три уютных домика. Неведомая и невидимая сила зверски убивает женщину на глазах мужа. Ночью у кровати его соседа появляется ужасный монстр. А мальчик из дома напротив, погибший под колесами автомобиля, возвращается с кладбища и садится за кухонный стол. Искать причину необъяснимых кошмаров берутся три специалиста по паранормальным явлениям и детектив из отдела по расследованию убийств.
AppleStoreCatalogID                      : 1440558785
Vendor                                   : Apple:vendor_id:2018-1068448
ContentRating                            : ru-movie|16+|375|

Video #1
ID                                       : 1
Format                                   : AVC
Format/Info                              : Advanced Video Codec
Format profile                           : High@L4
Format settings                          : CABAC / 5 Ref Frames
Format settings, CABAC                   : Yes
Format settings, ReFrames                : 5 frames
Format settings, GOP                     : N=1
Codec ID                                 : avc1
Codec ID/Info                            : Advanced Video Coding
Duration                                 : 1h 27mn
Bit rate                                 : 4 619 Kbps
Width                                    : 1 920 pixels
Height                                   : 858 pixels
Display aspect ratio                     : 2.25:1
Frame rate mode                          : Variable
Frame rate                               : 24.000 fps
Minimum frame rate                       : 23.810 fps
Maximum frame rate                       : 24.390 fps
Color space                              : YUV
Chroma subsampling                       : 4:2:0
Bit depth                                : 8 bits
Scan type                                : Progressive
Bits/(Pixel*Frame)                       : 0.117
Stream size                              : 2.83 GiB (89%)
Title                                    : Main Program
Language                                 : Spanish
Encoded date                             : UTC 2018-12-06 15:36:55
Tagged date                              : UTC 2018-12-06 15:37:01
Color range                              : Limited
Color primaries                          : BT.709
Transfer characteristics                 : BT.709
Matrix coefficients                      : BT.709
Menus                                    : 6,7
Codec configuration box                  : avcC

Video #2
ID                                       : 7
Format                                   : JPEG
Codec ID                                 : jpeg
Duration                                 : 1h 27mn
Bit rate mode                            : Variable
Bit rate                                 : 389 bps
Width                                    : 640 pixels
Height                                   : 286 pixels
Display aspect ratio                     : 2.25:1
Frame rate mode                          : Constant
Frame rate                               : 0.002 fps
Color space                              : YUV
Chroma subsampling                       : 4:2:0
Bit depth                                : 8 bits
Compression mode                         : Lossy
Bits/(Pixel*Frame)                       : 1.063
Stream size                              : 261 KiB (0%)
Title                                    : Chapter Images
Language                                 : Spanish
Default                                  : No
Encoded date                             : UTC 2018-12-06 15:39:07
Tagged date                              : UTC 2018-12-06 15:39:08
Menu For                                 : 1
ColorSpace_ICC                           : RGB

Audio #1
ID                                       : 2
Format                                   : AAC LC
Format/Info                              : Advanced Audio Codec Low Complexity
Codec ID                                 : mp4a-40-2
Duration                                 : 1h 27mn
Source duration                          : 1h 27mn
Bit rate mode                            : Variable
Bit rate                                 : 153 Kbps
Maximum bit rate                         : 256 Kbps
Channel(s)                               : 2 channels
Channel layout                           : L R
Sampling rate                            : 48.0 KHz
Frame rate                               : 46.875 fps (1024 SPF)
Compression mode                         : Lossy
Stream size                              : 95.8 MiB (3%)
Source stream size                       : 95.8 MiB (3%)
Title                                    : Russian Stereo
Language                                 : Russian
Default                                  : Yes
Alternate group                          : 1
Encoded date                             : UTC 2018-12-06 15:36:55
Tagged date                              : UTC 2018-12-06 15:37:02
Fallback From                            : 3

Audio #2
ID                                       : 3
Format                                   : AC-3
Format/Info                              : Audio Coding 3
Commercial name                          : Dolby Digital
Codec ID                                 : ac-3
Duration                                 : 1h 27mn
Bit rate mode                            : Constant
Bit rate                                 : 384 Kbps
Channel(s)                               : 6 channels
Channel layout                           : L R C LFE Ls Rs
Sampling rate                            : 48.0 KHz
Frame rate                               : 31.250 fps (1536 SPF)
Bit depth                                : 16 bits
Compression mode                         : Lossy
Stream size                              : 241 MiB (7%)
Title                                    : Russian DD 5.1
Language                                 : Russian
Service kind                             : Complete Main
Default                                  : Inherited From: 2
Alternate group                          : 1
Encoded date                             : UTC 2018-12-06 15:36:55
Tagged date                              : UTC 2018-12-06 15:37:01
Fallback To                              : 2

Menu #1
00:00:00.000                             : 1
00:07:41.208                             : 2
00:14:53.833                             : 3
00:22:40.166                             : 4
00:30:19.957                             : 5
00:37:54.373                             : 6
00:45:09.081                             : 7
00:52:20.872                             : 8
01:00:01.163                             : 9
01:07:55.663                             : 11
01:17:31.288                             : 12

Menu #2
ID                                       : 6
Codec ID                                 : text
Duration                                 : 1h 27mn
Language                                 : Spanish
Encoded date                             : UTC 2018-12-06 15:38:49
Tagged date                              : UTC 2018-12-06 15:38:49
Menu For                                 : 1
00:00:00.000                             : 1
00:07:41.208                             : 2
00:14:53.833                             : 3
00:22:40.166                             : 4
00:30:19.957                             : 5
00:37:54.373                             : 6
00:45:09.081                             : 7
00:52:20.872                             : 8
01:00:01.163                             : 9
01:07:55.663                             : 11
01:17:31.288                             : 12
Bit rate mode                            : VBR

Скриншоты:




Все одноименные релизы в Клубе


Релиз подготовлен для просмотра на Apple TV, iPad, iPhone, iPod Touch.
Для просмотра данного релиза на компьютере с ОС Windows рекомендуется использовать VLC media player

Смотреть Online

http://moonwalk.cc/video/52d5d779b2679650/iframe
Детали торрента:
Название:Оцепеневшие от страха / Aterrados (2018) WEB-DL [1080p] ATV
Дата добавления:06 Дек 2018 18:52:19
Размер:3,16 GB
Раздают:39
Качают:1
Форум:Зарубежное видео HD для устройств Apple

All rights reserved © 2015-2018