TORRENTS45.XYZ

Скачать VA - Cosmic Cubes - A Cosmic Trance Compilation Vol. 1-6 (1994-1997) 6x2CD, Compilation [FLAC|Lossless|image + .cue] <Trance, Goa Trance, Progressive Trance>


VA - Cosmic Cubes - A Cosmic Trance Compilation Vol. 1-6 (1994-1997)
6x2CD, Compilation

Жанр: Trance, Goa Trance, Progressive Trance
Издание: Sub Terranean
Продолжительность: 15:13:20

Кодек: FLAC
Битрейт: Lossless
Тип рипа: image + .cue
Автор рипа: Гас

1994 - Cosmic Cubes - A Cosmic Trance Compilation Vol. 1
CD1
Продолжительноcть: 01:14:59
Треклист:
01. Paul van Dyk - A Love Letter (5:03)
02. Union Jack - Two Full Moons & A Trout (Caspar Pound Mix) (12:39)
03. Tranceliner - The Dream (7:11)
04. Aurora Borealis - The Milky Way (8:21)
05. Out on a Limb - Spacebuggy (7:10)
06. K.U.R.O. - Zoa (Remix) (6:53)
07. Extract - Line Of Depth (7:23)
08. Acrid Abeyance - Exposure Track (8:07)
09. Desert Storm - Desert Storm (Psycho Drums Remix) (5:49)
10. Gain Force - X-Emption (Mandala Remix) (6:16)

Отчёт EAC:


Exact Audio Copy V0.99 prebeta 3 from 28. July 2007

Отчёт EAC об извлечении, выполненном 18. сентября 2008, 2:47

Various / Cosmic Cubes 1 - CD1

Дисковод: PIONEER DVD-RW DVR-212 Adapter: 3 ID: 0

Режим чтения : Достоверность
Использование точного потока : Да
Отключение кэша аудио : Да
Использование указателей C2 : Нет

Коррекция смещения при чтении : 48
Способность читать области Lead-in и Lead-out : Нет
Заполнение пропущенных сэмплов тишиной : Да
Удаление блоков с тишиной в начале и конце : Нет
При вычислениях CRC использовались нулевые сэмплы : Да
Интерфейс : Установленный внешний ASPI-интерфейс

Выходной формат : Внутренние WAV-операции
Формат сэмплов : 44.100 Гц; 16 бит; стерео

TOC извлечённого CD

Трек | Старт | Длительность | Начальный сектор | Конечный сектор
---------------------------------------------------------------------
1 | 0:00.00 | 5:03.32 | 0 | 22756
2 | 5:03.32 | 12:39.25 | 22757 | 79706
3 | 17:42.57 | 7:10.48 | 79707 | 112004
4 | 24:53.30 | 8:21.05 | 112005 | 149584
5 | 33:14.35 | 7:10.17 | 149585 | 181851
6 | 40:24.52 | 6:53.10 | 181852 | 212836
7 | 47:17.62 | 7:23.03 | 212837 | 246064
8 | 54:40.65 | 8:07.10 | 246065 | 282599
9 | 62:48.00 | 5:49.17 | 282600 | 308791
10 | 68:37.17 | 6:15.58 | 308792 | 336974

Характеристики диапазона извлечения и сообщения об ошибках

Выбранный диапазон

Имя файла E:\Музыка\Nrg\Электронная\VA Cosmic cubes vol 1\CD2\Various - Cosmic Cubes 1 - CD1.wav

Пиковый уровень 99.2 %
Качество диапазона 100.0 %
CRC копии AA996C42
Копирование... OK

Ошибок не произошло

AccurateRip: сводка

Трек 1 точность не определена (достоверность 1) [755E1C88], AccurateRip вернул [86BF4D42]
Трек 2 точность не определена (достоверность 1) [ADF8738D], AccurateRip вернул [A8A4F9A5]
Трек 3 точность не определена (достоверность 1) [938D7CA1], AccurateRip вернул [2BC2E141]
Трек 4 точность не определена (достоверность 1) [74D20846], AccurateRip вернул [95AD5A08]
Трек 5 точность не определена (достоверность 1) [DF0E4073], AccurateRip вернул [35F4E5A7]
Трек 6 точность не определена (достоверность 1) [969C1C3E], AccurateRip вернул [DC38ECC0]
Трек 7 точность не определена (достоверность 1) [B7B80E07], AccurateRip вернул [2E6C2699]
Трек 8 точность не определена (достоверность 1) [6856B805], AccurateRip вернул [4A860BF0]
Трек 9 точность не определена (достоверность 1) [9C909864], AccurateRip вернул [79B0545D]
Трек 10 точность не определена (достоверность 1) [3F5E2D5C], AccurateRip вернул [0AD9BC6A]

Ни один трек не прошёл проверки на точность
В вашей базе может быть иной вариант штамповки диска

Конец отчёта

Cue Sheet (.cue):


REM GENRE Trance
REM DATE 1994
REM DISCID 94118D0A
REM COMMENT "ExactAudioCopy v0.99pb3"
PERFORMER "Various"
TITLE "Cosmic Cubes - A Cosmic Trance Compilation Vol. 1 CD1"
FILE "Various - Cosmic Cubes 1 CD1.flac" WAVE
TRACK 01 AUDIO
TITLE "A Love Letter"
PERFORMER "Paul van Dyk"
INDEX 01 00:00:00
TRACK 02 AUDIO
TITLE "Two Full Moons & A Trout (Caspar Pound Mix)"
PERFORMER "Union Jack"
INDEX 01 05:03:32
TRACK 03 AUDIO
TITLE "The Dream"
PERFORMER "Tranceliner"
INDEX 01 17:42:57
TRACK 04 AUDIO
TITLE "The Milky Way"
PERFORMER "Aurora Borealis"
INDEX 01 24:53:30
TRACK 05 AUDIO
TITLE "Spacebuggy"
PERFORMER "Out on a Limb"
INDEX 01 33:14:35
TRACK 06 AUDIO
TITLE "Zoa (Remix)"
PERFORMER "K.U.R.O."
INDEX 01 40:24:52
TRACK 07 AUDIO
TITLE "Line Of Depth"
PERFORMER "Extract"
INDEX 01 47:17:62
TRACK 08 AUDIO
TITLE "Exposure Track"
PERFORMER "Acrid Abeyance"
INDEX 01 54:40:65
TRACK 09 AUDIO
TITLE "Desert Storm (Psycho Drums Remix)"
PERFORMER "Desert Storm"
INDEX 01 62:48:00
TRACK 10 AUDIO
TITLE "X-Emption (Mandala Remix)"
PERFORMER "Gain Force"
INDEX 01 68:37:17

Отчёт auCDtect Task manager:


-----------------------

DON'T MODIFY THIS FILE

-----------------------

PERFORMER: auCDtect Task Manager, ver. 1.6.0 RC1 build 1.6.0.1
Copyright (c) 2008-2010 y-soft. All rights reserved
http://y-soft.org

ANALYZER: auCDtect: CD records authenticity detector, version 0.8.2
Copyright (c) 2004 Oleg Berngardt. All rights reserved.
Copyright (c) 2004 Alexander Djourik. All rights reserved.

FILE: Various - Cosmic Cubes 1 CD1.flac
Size: 508057076 Hash: 6EF31CDE54ABEECF6B2B715A44910CA0 Accuracy: -m0
Conclusion: CDDA 100%
Signature: A7C699AA9426F821F261A7618B74D1720B4AC970

CD2

Продолжительноcть: 01:10:21
Треклиcт:
01. Siddharta - De La Trance (Headman Mix) (7:02)
02. Roughage - More of dB (7:07)
03. Pergon - The Deliverer (6:53)
04. Circumspice - Trancearea (7:26)
05. Mystic Force - Starburst (7:22)
06. L.S.G. - Blueprint (Version 2) (9:54)
07. Para-Dizer - Song of Liberation (Original Mix) (6:25)
08. En Garde - Enfant Terrible (Cruel Noise Mix) (4:58)
09. The Syndicate - X-Mod (5:49)
10. Basic Gravity - Rajah (7:23)

Отчёт EAC:


Exact Audio Copy V0.99 prebeta 3 from 28. July 2007

Отчёт EAC об извлечении, выполненном 18. сентября 2008, 2:35

Various / Cosmic Cubes 1 - CD2

Дисковод: PIONEER DVD-RW DVR-212 Adapter: 3 ID: 0

Режим чтения : Достоверность
Использование точного потока : Да
Отключение кэша аудио : Да
Использование указателей C2 : Нет

Коррекция смещения при чтении : 48
Способность читать области Lead-in и Lead-out : Нет
Заполнение пропущенных сэмплов тишиной : Да
Удаление блоков с тишиной в начале и конце : Нет
При вычислениях CRC использовались нулевые сэмплы : Да
Интерфейс : Установленный внешний ASPI-интерфейс

Выходной формат : Внутренние WAV-операции
Формат сэмплов : 44.100 Гц; 16 бит; стерео

TOC извлечённого CD

Трек | Старт | Длительность | Начальный сектор | Конечный сектор
---------------------------------------------------------------------
1 | 0:00.00 | 7:01.40 | 0 | 31614
2 | 7:01.40 | 7:06.47 | 31615 | 63611
3 | 14:08.12 | 6:52.65 | 63612 | 94576
4 | 21:01.02 | 7:26.20 | 94577 | 128046
5 | 28:27.22 | 7:21.53 | 128047 | 161174
6 | 35:49.00 | 9:53.40 | 161175 | 205689
7 | 45:42.40 | 6:25.17 | 205690 | 234581
8 | 52:07.57 | 4:58.00 | 234582 | 256931
9 | 57:05.57 | 5:48.40 | 256932 | 283071
10 | 62:54.22 | 7:22.53 | 283072 | 316274

Характеристики диапазона извлечения и сообщения об ошибках

Выбранный диапазон

Имя файла E:\Музыка\Nrg\Электронная\VA Cosmic cubes vol 1\CD1\Various - Cosmic Cubes 1 - CD2.wav

Пиковый уровень 98.4 %
Качество диапазона 100.0 %
CRC копии 6766EE48
Копирование... OK

Ошибок не произошло

AccurateRip: сводка

Трек 1 точность не определена (достоверность 1) [4C3CF768], AccurateRip вернул [94777004]
Трек 2 точность не определена (достоверность 1) [29D983B9], AccurateRip вернул [E06350BF]
Трек 3 точность не определена (достоверность 1) [940E9F2C], AccurateRip вернул [EF3D85A4]
Трек 4 точность не определена (достоверность 1) [4D831016], AccurateRip вернул [8F96B645]
Трек 5 точность не определена (достоверность 1) [AC783D6F], AccurateRip вернул [7EF7E243]
Трек 6 точность не определена (достоверность 1) [9D38E1B0], AccurateRip вернул [07143546]
Трек 7 точность не определена (достоверность 1) [4878798D], AccurateRip вернул [7D1D25A0]
Трек 8 точность не определена (достоверность 1) [6DF24948], AccurateRip вернул [78404D43]
Трек 9 точность не определена (достоверность 1) [FB3A3FA5], AccurateRip вернул [8D383F4C]
Трек 10 точность не определена (достоверность 1) [2DE5CC66], AccurateRip вернул [1232B1D6]

Ни один трек не прошёл проверки на точность
В вашей базе может быть иной вариант штамповки диска

Конец отчёта

Cue Sheet (.cue):


REM GENRE Trance
REM DATE 1994
REM DISCID 8510790A
REM COMMENT "ExactAudioCopy v0.99pb3"
PERFORMER "Various"
TITLE "Cosmic Cubes - A Cosmic Trance Compilation Vol. 1 CD2"
FILE "Various - Cosmic Cubes 1 CD2.flac" WAVE
TRACK 01 AUDIO
TITLE "De La Trance (Headman Mix)"
PERFORMER "Siddharta"
INDEX 01 00:00:00
TRACK 02 AUDIO
TITLE "More of dB"
PERFORMER "Roughage"
INDEX 01 07:01:40
TRACK 03 AUDIO
TITLE "The Deliverer"
PERFORMER "Pergon"
INDEX 01 14:08:12
TRACK 04 AUDIO
TITLE "Trancearea"
PERFORMER "Circumspice"
INDEX 01 21:01:02
TRACK 05 AUDIO
TITLE "Starburst"
PERFORMER "Mystic Force"
INDEX 01 28:27:22
TRACK 06 AUDIO
TITLE "Blueprint (Version 2)"
PERFORMER "L.S.G."
INDEX 01 35:49:00
TRACK 07 AUDIO
TITLE "Song of Liberation (Original Mix)"
PERFORMER "Para-Dizer"
INDEX 01 45:42:40
TRACK 08 AUDIO
TITLE "Enfant Terrible (Cruel Noise Mix)"
PERFORMER "En Garde"
INDEX 01 52:07:57
TRACK 09 AUDIO
TITLE "X-Mod"
PERFORMER "The Syndicate"
INDEX 01 57:05:57
TRACK 10 AUDIO
TITLE "Rajah"
PERFORMER "Basic Gravity"
INDEX 01 62:54:22

Отчёт auCDtect Task manager:


-----------------------

DON'T MODIFY THIS FILE

-----------------------

PERFORMER: auCDtect Task Manager, ver. 1.6.0 RC1 build 1.6.0.1
Copyright (c) 2008-2010 y-soft. All rights reserved
http://y-soft.org

ANALYZER: auCDtect: CD records authenticity detector, version 0.8.2
Copyright (c) 2004 Oleg Berngardt. All rights reserved.
Copyright (c) 2004 Alexander Djourik. All rights reserved.

FILE: Various - Cosmic Cubes 1 CD2.flac
Size: 473026333 Hash: 833EC22FB6AC8DB16891AC5EB95C7528 Accuracy: -m0
Conclusion: CDDA 100%
Signature: D673D594EC7ED33AED40EFDC18F24E5BBA43EC61

1995 - Cosmic Cubes - A Cosmic Trance Compilation Vol. 2

CD1
Продолжительноcть: 01:18:00
Треклиcт:
01. Speedy J - The Oil Zone (Edge of Motion Mix) (5:50)
02. Pan & Trex - Iceman on the Beach (12:27)
03. Sub-Stance - Sea of Happiness (6:05)
04. Dr. DNA - Love Ball (8:15)
05. The Wavecatcher - TFlight DH2126 (Original Full Version) (6:31)
06. Caunos - Herzsprung (7:39)
07. Art of Trance - Orange (6:27)
08. Amorph - Solar Cells (8:01)
09. Crossbreed - Brix (Shattered Mix) (8:19)
10. Emmanuel Top - Tone (8:23)

Отчёт EAC:


Exact Audio Copy V0.99 prebeta 3 from 28. July 2007

Отчёт EAC об извлечении, выполненном 18. сентября 2008, 2:59

Various Artists / Cosmic Cubes Vol. II - CD1

Дисковод: PIONEER DVD-RW DVR-212 Adapter: 3 ID: 0

Режим чтения : Достоверность
Использование точного потока : Да
Отключение кэша аудио : Да
Использование указателей C2 : Нет

Коррекция смещения при чтении : 48
Способность читать области Lead-in и Lead-out : Нет
Заполнение пропущенных сэмплов тишиной : Да
Удаление блоков с тишиной в начале и конце : Нет
При вычислениях CRC использовались нулевые сэмплы : Да
Интерфейс : Установленный внешний ASPI-интерфейс

Выходной формат : Внутренние WAV-операции
Формат сэмплов : 44.100 Гц; 16 бит; стерео

TOC извлечённого CD

Трек | Старт | Длительность | Начальный сектор | Конечный сектор
---------------------------------------------------------------------
1 | 0:00.00 | 5:49.37 | 0 | 26211
2 | 5:49.37 | 12:27.10 | 26212 | 82246
3 | 18:16.47 | 6:04.43 | 82247 | 109589
4 | 24:21.15 | 8:15.30 | 109590 | 146744
5 | 32:36.45 | 6:30.72 | 146745 | 176066
6 | 39:07.42 | 7:38.53 | 176067 | 210469
7 | 46:46.20 | 6:27.02 | 210470 | 239496
8 | 53:13.22 | 8:00.65 | 239497 | 275561
9 | 61:14.12 | 8:18.50 | 275562 | 312961
10 | 69:32.62 | 8:23.13 | 312962 | 350699

Характеристики диапазона извлечения и сообщения об ошибках

Выбранный диапазон

Имя файла E:\Музыка\Nrg\Электронная\VA Cosmic cubes vol 2\CD1\Various Artists - Cosmic Cubes Vol. II - CD1.wav

Пиковый уровень 99.6 %
Качество диапазона 100.0 %
CRC копии 941D84DC
Копирование... OK

Ошибок не произошло

AccurateRip: сводка

Трек 1 точное извлечение (доверие 4) [AF526011]
Трек 2 точное извлечение (доверие 4) [33FF54AC]
Трек 3 точное извлечение (доверие 4) [C07F1C2C]
Трек 4 точное извлечение (доверие 4) [CA3DF205]
Трек 5 точное извлечение (доверие 4) [86DD63DE]
Трек 6 точное извлечение (доверие 4) [E8577E3D]
Трек 7 точное извлечение (доверие 4) [66BB16BB]
Трек 8 точное извлечение (доверие 4) [723A7E3A]
Трек 9 точное извлечение (доверие 4) [796EA985]
Трек 10 точное извлечение (доверие 4) [2D214F90]

Все треки извлечены точно

Конец отчёта

Cue Sheet (.cue):


REM GENRE Trance
REM DATE 1995
REM DISCID 9E12440A
REM COMMENT "ExactAudioCopy v0.99pb3"
PERFORMER "Various"
TITLE "Cosmic Cubes - A Cosmic Trance Compilation Vol. 2 CD1"
FILE "Various - Cosmic Cubes Vol. 2 CD1.flac" WAVE
TRACK 01 AUDIO
TITLE "The Oil Zone (Edge of Motion Mix)"
PERFORMER "Speedy J"
INDEX 01 00:00:00
TRACK 02 AUDIO
TITLE "Iceman on the Beach"
PERFORMER "Pan & Trex"
INDEX 01 05:49:37
TRACK 03 AUDIO
TITLE "Sea of Happiness"
PERFORMER "Sub-Stance"
INDEX 01 18:16:47
TRACK 04 AUDIO
TITLE "Love Ball"
PERFORMER "Dr. DNA"
INDEX 01 24:21:15
TRACK 05 AUDIO
TITLE "TFlight DH2126 (Original Full Version)"
PERFORMER "The Wavecatcher"
INDEX 01 32:36:45
TRACK 06 AUDIO
TITLE "Herzsprung"
PERFORMER "Caunos"
INDEX 01 39:07:42
TRACK 07 AUDIO
TITLE "Orange"
PERFORMER "Art of Trance"
INDEX 01 46:46:20
TRACK 08 AUDIO
TITLE "Solar Cells"
PERFORMER "Amorph"
INDEX 01 53:13:22
TRACK 09 AUDIO
TITLE "Brix (Shattered Mix)"
PERFORMER "Crossbreed"
INDEX 01 61:14:12
TRACK 10 AUDIO
TITLE "Tone"
PERFORMER "Emmanuel Top"
INDEX 01 69:32:62

Отчёт auCDtect Task manager:


-----------------------

DON'T MODIFY THIS FILE

-----------------------

PERFORMER: auCDtect Task Manager, ver. 1.6.0 RC1 build 1.6.0.1
Copyright (c) 2008-2010 y-soft. All rights reserved
http://y-soft.org

ANALYZER: auCDtect: CD records authenticity detector, version 0.8.2
Copyright (c) 2004 Oleg Berngardt. All rights reserved.
Copyright (c) 2004 Alexander Djourik. All rights reserved.

FILE: Various - Cosmic Cubes Vol. 2 CD1.flac
Size: 514642634 Hash: 45F8BB6227A003DA18C794A0EA2F426E Accuracy: -m0
Conclusion: CDDA 99%
Signature: 35C2DE186507C0077E4D66995CFC8DEF9756080D
CD2
Продолжительноcть: 01:16:44
Треклиcт:
01. Space Experience - Preface (7:01)
02. Unreal 3 - Prologue (7:13)
03. Tranceliner - Greetings from the Exile (9:53)
04. Cenobyte - Future World (Future Mix) (6:24)
05. Nostradamus - Injection (9:38)
06. Paragliders - Oasis (Sheik Mix) (10:32)
07. V-Tracks - Subway 26 (Original Version) (4:57)
08. Hallucinogen - Soothsayer (7:53)
09. Blue Planet Corp. - Generator (6:56)
10. Total Eclipse - Far Beyond Speech (6:12)

Отчёт EAC:


Exact Audio Copy V0.99 prebeta 3 from 28. July 2007

Отчёт EAC об извлечении, выполненном 18. сентября 2008, 4:15

Various Artists / Cosmic Cubes Vol. II - CD 2

Дисковод: PIONEER DVD-RW DVR-212 Adapter: 3 ID: 0

Режим чтения : Достоверность
Использование точного потока : Да
Отключение кэша аудио : Да
Использование указателей C2 : Нет

Коррекция смещения при чтении : 48
Способность читать области Lead-in и Lead-out : Нет
Заполнение пропущенных сэмплов тишиной : Да
Удаление блоков с тишиной в начале и конце : Нет
При вычислениях CRC использовались нулевые сэмплы : Да
Интерфейс : Установленный внешний ASPI-интерфейс

Выходной формат : Внутренние WAV-операции
Формат сэмплов : 44.100 Гц; 16 бит; стерео

TOC извлечённого CD

Трек | Старт | Длительность | Начальный сектор | Конечный сектор
---------------------------------------------------------------------
1 | 0:00.00 | 7:01.00 | 0 | 31574
2 | 7:01.00 | 7:12.62 | 31575 | 64036
3 | 14:13.62 | 9:53.05 | 64037 | 108516
4 | 24:06.67 | 6:24.00 | 108517 | 137316
5 | 30:30.67 | 9:38.08 | 137317 | 180674
6 | 40:09.00 | 10:32.17 | 180675 | 228091
7 | 50:41.17 | 4:56.58 | 228092 | 250349
8 | 55:38.00 | 7:53.12 | 250350 | 285836
9 | 63:31.12 | 6:55.38 | 285837 | 316999
10 | 70:26.50 | 6:12.25 | 317000 | 344924

Характеристики диапазона извлечения и сообщения об ошибках

Выбранный диапазон

Имя файла E:\Музыка\Nrg\Электронная\VA Cosmic cubes vol 2\CD2\Various Artists - Cosmic Cubes Vol. II - CD 2.wav

Пиковый уровень 99.9 %
Качество диапазона 99.9 %
CRC копии 4CBAAEA4
Копирование... OK

Ошибок не произошло

AccurateRip: сводка

Трек 1 точное извлечение (доверие 4) [AD72D8FB]
Трек 2 точное извлечение (доверие 5) [15F75323]
Трек 3 точное извлечение (доверие 5) [018267BC]
Трек 4 точное извлечение (доверие 4) [CC268554]
Трек 5 точное извлечение (доверие 4) [94937562]
Трек 6 точное извлечение (доверие 4) [573FEF01]
Трек 7 точное извлечение (доверие 4) [FAA0D4BA]
Трек 8 точное извлечение (доверие 4) [36B644B8]
Трек 9 точное извлечение (доверие 5) [BEAE29FF]
Трек 10 точное извлечение (доверие 5) [EC7F96F4]

Все треки извлечены точно

Конец отчёта

Cue Sheet (.cue):


REM GENRE Trance
REM DATE 1995
REM DISCID 7711F70A
REM COMMENT "ExactAudioCopy v0.99pb3"
PERFORMER "Various"
TITLE "Cosmic Cubes - A Cosmic Trance Compilation Vol. 2 CD2"
FILE "Various - Cosmic Cubes Vol. 2 CD2.flac" WAVE
TRACK 01 AUDIO
TITLE "Preface"
PERFORMER "Space Experience"
INDEX 01 00:00:00
TRACK 02 AUDIO
TITLE "Prologue"
PERFORMER "Unreal 3"
INDEX 01 07:01:00
TRACK 03 AUDIO
TITLE "Greetings from the Exile"
PERFORMER "Tranceliner"
INDEX 01 14:13:62
TRACK 04 AUDIO
TITLE "Future World (Future Mix)"
PERFORMER "Cenobyte"
INDEX 01 24:06:67
TRACK 05 AUDIO
TITLE "Injection"
PERFORMER "Nostradamus"
INDEX 01 30:30:67
TRACK 06 AUDIO
TITLE "Oasis (Sheik Mix)"
PERFORMER "Paragliders"
INDEX 01 40:09:00
TRACK 07 AUDIO
TITLE "Subway 26 (Original Version)"
PERFORMER "V-Tracks"
INDEX 01 50:41:17
TRACK 08 AUDIO
TITLE "Soothsayer"
PERFORMER "Hallucinogen"
INDEX 01 55:38:00
TRACK 09 AUDIO
TITLE "Generator"
PERFORMER "Blue Planet Corp."
INDEX 01 63:31:12
TRACK 10 AUDIO
TITLE "Far Beyond Speech"
PERFORMER "Total Eclipse"
INDEX 01 70:26:50

Отчёт auCDtect Task manager:


-----------------------

DON'T MODIFY THIS FILE

-----------------------

PERFORMER: auCDtect Task Manager, ver. 1.6.0 RC1 build 1.6.0.1
Copyright (c) 2008-2010 y-soft. All rights reserved
http://y-soft.org

ANALYZER: auCDtect: CD records authenticity detector, version 0.8.2
Copyright (c) 2004 Oleg Berngardt. All rights reserved.
Copyright (c) 2004 Alexander Djourik. All rights reserved.

FILE: Various - Cosmic Cubes Vol. 2 CD2.flac
Size: 516335004 Hash: 37DF4F4C798DE3647F4D5CC2F95916B5 Accuracy: -m0
Conclusion: CDDA 100%
Signature: 85D7FBAA74226E478D5860B4B846A15F528104A9

1996 - Cosmic Cubes - A Cosmic Trance Compilation Vol. 3

CD1
Продолжительноcть: 01:16:34
Треклиcт:
01. Nalin & Kane - The K-People (10:06)
02. Max 404 - How To Bluff Your Way Into Techno Music (6:46)
03. Hybe. Nation - Visual Imagination (6:14)
04. Quatermass - Dawn Goddess (8:38)
05. LSG - Sweet Gravity (8:01)
06. Kasjmir - Polterguys (5:58)
07. Spacebuggy - Hovercab (7:38)
08. Slam - Positiv Education (8:35)
09. Love Religion - Don't Cry My Love (6:14)
10. Ru-Rapente - Rising Rissol (8:23)

Отчёт EAC:


Exact Audio Copy V0.99 prebeta 3 from 28. July 2007

Отчёт EAC об извлечении, выполненном 18. сентября 2008, 16:47

Various / Cosmic Cubes Vol. III - CD 1

Дисковод: PIONEER DVD-RW DVR-212 Adapter: 3 ID: 0

Режим чтения : Достоверность
Использование точного потока : Да
Отключение кэша аудио : Да
Использование указателей C2 : Нет

Коррекция смещения при чтении : 48
Способность читать области Lead-in и Lead-out : Нет
Заполнение пропущенных сэмплов тишиной : Да
Удаление блоков с тишиной в начале и конце : Нет
При вычислениях CRC использовались нулевые сэмплы : Да
Интерфейс : Установленный внешний ASPI-интерфейс

Выходной формат : Внутренние WAV-операции
Формат сэмплов : 44.100 Гц; 16 бит; стерео

TOC извлечённого CD

Трек | Старт | Длительность | Начальный сектор | Конечный сектор
---------------------------------------------------------------------
1 | 0:00.00 | 10:06.22 | 0 | 45471
2 | 10:06.22 | 6:45.65 | 45472 | 75911
3 | 16:52.12 | 6:13.65 | 75912 | 103951
4 | 23:06.02 | 8:37.73 | 103952 | 142799
5 | 31:44.00 | 8:00.52 | 142800 | 178851
6 | 39:44.52 | 5:58.08 | 178852 | 205709
7 | 45:42.60 | 7:37.45 | 205710 | 240029
8 | 53:20.30 | 8:34.50 | 240030 | 278629
9 | 61:55.05 | 6:14.07 | 278630 | 306686
10 | 68:09.12 | 8:22.63 | 306687 | 344399

Характеристики диапазона извлечения и сообщения об ошибках

Выбранный диапазон

Имя файла E:\Музыка\Nrg\Электронная\VA Cosmic cubes vol 3\CD1\Various - Cosmic Cubes Vol. III - CD 1.wav

Пиковый уровень 99.5 %
Качество диапазона 100.0 %
CRC копии 4537E837
Копирование... OK

Ошибок не произошло

AccurateRip: сводка

Трек 1 нет в базе данных
Трек 2 нет в базе данных
Трек 3 нет в базе данных
Трек 4 нет в базе данных
Трек 5 нет в базе данных
Трек 6 нет в базе данных
Трек 7 нет в базе данных
Трек 8 нет в базе данных
Трек 9 нет в базе данных
Трек 10 нет в базе данных

Ни одного трека нет в базе AccurateRip

Конец отчёта

Cue Sheet (.cue):


REM GENRE Trance
REM DATE 1996
REM DISCID 8511F00A
REM COMMENT "ExactAudioCopy v0.99pb3"
PERFORMER "Various"
TITLE "Cosmic Cubes - A Cosmic Trance Compilation Vol. 3 CD1"
FILE "Various - Cosmic Cubes Vol. 3 CD1.flac" WAVE
TRACK 01 AUDIO
TITLE "The K-People"
PERFORMER "Nalin & Kane"
INDEX 01 00:00:00
TRACK 02 AUDIO
TITLE "How To Bluff Your Way Into Techno Music"
PERFORMER "Max 404"
INDEX 00 10:06:20
INDEX 01 10:06:22
TRACK 03 AUDIO
TITLE "Visual Imagination"
PERFORMER "Hybe. Nation"
INDEX 00 16:52:10
INDEX 01 16:52:12
TRACK 04 AUDIO
TITLE "Dawn Goddess"
PERFORMER "Quatermass"
INDEX 00 23:06:00
INDEX 01 23:06:02
TRACK 05 AUDIO
TITLE "Sweet Gravity"
PERFORMER "LSG"
INDEX 00 31:43:72
INDEX 01 31:44:00
TRACK 06 AUDIO
TITLE "Polterguys"
PERFORMER "Kasjmir"
INDEX 00 39:44:50
INDEX 01 39:44:52
TRACK 07 AUDIO
TITLE "Hovercab"
PERFORMER "Spacebuggy"
INDEX 00 45:42:57
INDEX 01 45:42:60
TRACK 08 AUDIO
TITLE "Positiv Education"
PERFORMER "Slam"
INDEX 00 53:20:27
INDEX 01 53:20:30
TRACK 09 AUDIO
TITLE "Don't Cry My Love"
PERFORMER "Love Religion"
INDEX 00 61:55:02
INDEX 01 61:55:05
TRACK 10 AUDIO
TITLE "Rising Rissol"
PERFORMER "Ru-Rapente"
INDEX 00 68:09:10
INDEX 01 68:09:12

Отчёт auCDtect Task manager:


-----------------------

DON'T MODIFY THIS FILE

-----------------------

PERFORMER: auCDtect Task Manager, ver. 1.6.0 RC1 build 1.6.0.1
Copyright (c) 2008-2010 y-soft. All rights reserved
http://y-soft.org

ANALYZER: auCDtect: CD records authenticity detector, version 0.8.2
Copyright (c) 2004 Oleg Berngardt. All rights reserved.
Copyright (c) 2004 Alexander Djourik. All rights reserved.

FILE: Various - Cosmic Cubes Vol. 3 CD1.flac
Size: 500811479 Hash: 7E8975C9A0C9FD65E81B669F10AF3FCB Accuracy: -m0
Conclusion: CDDA 100%
Signature: 4B92F35929B6CD8DEAAC51DD8C65DC77DD4E5FDB
CD2
Продолжительноcть: 01:17:18
Треклиcт:
01. Ethnica - Chemical Trance (9:04)
02. Z-Plane - Hopium (6:43)
03. 100th Monkeys & Tristan - Gobi Desert (8:54)
04. Illegal District - Dirty Life (Back to Venom Mix) (8:33)
05. Caunos - Bombay (7:30)
06. Source Experience - Synasthasia (7:53)
07. New Balance Crossover - Intivnate Encounter (8:02)
08. L'Auberge - Neriah Fetisch Mix (6:08)
09. Modell 500 - The Flow (Underworld Mix) (7:31)
10. Angeldust - On The Frightened (6:55)

Отчёт EAC:


Exact Audio Copy V0.99 prebeta 3 from 28. July 2007

Отчёт EAC об извлечении, выполненном 18. сентября 2008, 16:32

Various Artists / Cosmic Cubes Vol. III - CD 2

Дисковод: PIONEER DVD-RW DVR-212 Adapter: 3 ID: 0

Режим чтения : Достоверность
Использование точного потока : Да
Отключение кэша аудио : Да
Использование указателей C2 : Нет

Коррекция смещения при чтении : 48
Способность читать области Lead-in и Lead-out : Нет
Заполнение пропущенных сэмплов тишиной : Да
Удаление блоков с тишиной в начале и конце : Нет
При вычислениях CRC использовались нулевые сэмплы : Да
Интерфейс : Установленный внешний ASPI-интерфейс

Выходной формат : Внутренние WAV-операции
Формат сэмплов : 44.100 Гц; 16 бит; стерео

TOC извлечённого CD

Трек | Старт | Длительность | Начальный сектор | Конечный сектор
---------------------------------------------------------------------
1 | 0:00.00 | 9:04.07 | 0 | 40806
2 | 9:04.07 | 6:42.73 | 40807 | 71029
3 | 15:47.05 | 8:54.10 | 71030 | 111089
4 | 24:41.15 | 8:33.15 | 111090 | 149579
5 | 33:14.30 | 7:29.72 | 149580 | 183326
6 | 40:44.27 | 7:53.28 | 183327 | 218829
7 | 48:37.55 | 8:02.22 | 218830 | 255001
8 | 56:40.02 | 6:07.45 | 255002 | 282571
9 | 62:47.47 | 7:30.45 | 282572 | 316366
10 | 70:18.17 | 6:54.70 | 316367 | 347486

Характеристики диапазона извлечения и сообщения об ошибках

Выбранный диапазон

Имя файла E:\Музыка\Nrg\Электронная\VA Cosmic cubes vol 3\CD2\Various Artists - Cosmic Cubes Vol. III - CD 2.wav

Пиковый уровень 98.4 %
Качество диапазона 99.9 %
CRC копии 5F29EA00
Копирование... OK

Ошибок не произошло

AccurateRip: сводка

Трек 1 нет в базе данных
Трек 2 нет в базе данных
Трек 3 нет в базе данных
Трек 4 нет в базе данных
Трек 5 нет в базе данных
Трек 6 нет в базе данных
Трек 7 нет в базе данных
Трек 8 нет в базе данных
Трек 9 нет в базе данных
Трек 10 нет в базе данных

Ни одного трека нет в базе AccurateRip

Конец отчёта

Cue Sheet (.cue):


REM GENRE Trance
REM DATE 1996
REM DISCID 9F12190A
REM COMMENT "ExactAudioCopy v0.99pb3"
PERFORMER "Various"
TITLE "Cosmic Cubes - A Cosmic Trance Compilation Vol. 3 CD2"
FILE "Various - Cosmic Cubes Vol. 3 CD2.flac" WAVE
TRACK 01 AUDIO
TITLE "Chemical Trance"
PERFORMER "Ethnica"
INDEX 01 00:00:00
TRACK 02 AUDIO
TITLE "Hopium"
PERFORMER "Z-Plane"
INDEX 00 09:04:03
INDEX 01 09:04:07
TRACK 03 AUDIO
TITLE "Gobi Desert"
PERFORMER "100th Monkeys & Tristan"
INDEX 00 15:47:00
INDEX 01 15:47:05
TRACK 04 AUDIO
TITLE "Dirty Life (Back to Venom Mix)"
PERFORMER "Illegal District"
INDEX 00 24:41:10
INDEX 01 24:41:15
TRACK 05 AUDIO
TITLE "Bombay"
PERFORMER "Caunos"
INDEX 00 33:14:25
INDEX 01 33:14:30
TRACK 06 AUDIO
TITLE "Synasthasia"
PERFORMER "Source Experience"
INDEX 00 40:44:23
INDEX 01 40:44:27
TRACK 07 AUDIO
TITLE "Intivnate Encounter"
PERFORMER "New Balance Crossover"
INDEX 00 48:37:50
INDEX 01 48:37:55
TRACK 08 AUDIO
TITLE "Neriah Fetisch Mix"
PERFORMER "L'Auberge"
INDEX 00 56:39:73
INDEX 01 56:40:02
TRACK 09 AUDIO
TITLE "The Flow (Underworld Mix)"
PERFORMER "Modell 500"
INDEX 00 62:47:43
INDEX 01 62:47:47
TRACK 10 AUDIO
TITLE "On The Frightened"
PERFORMER "Angeldust"
INDEX 00 70:18:13
INDEX 01 70:18:17

Отчёт auCDtect Task manager:


-----------------------

DON'T MODIFY THIS FILE

-----------------------

PERFORMER: auCDtect Task Manager, ver. 1.6.0 RC1 build 1.6.0.1
Copyright (c) 2008-2010 y-soft. All rights reserved
http://y-soft.org

ANALYZER: auCDtect: CD records authenticity detector, version 0.8.2
Copyright (c) 2004 Oleg Berngardt. All rights reserved.
Copyright (c) 2004 Alexander Djourik. All rights reserved.

FILE: Various - Cosmic Cubes Vol. 3 CD2.flac
Size: 521597262 Hash: B2F5B88305BDB45F696871CC3D616332 Accuracy: -m0
Conclusion: CDDA 100%
Signature: 51ECFF7A3416CCEF5CBCB034D67E79CC01FC3168

1996 - Cosmic Cubes - A Cosmic Trance Compilation Vol. 4

CD1
Продолжительноcть: 01:17:46
Треклиcт:
01. Ritmo Di Vida - The Spirit Is Justified (Tantra Dub) (5:10)
02. Deep Sound - Party Spirit (Yum Yum Mix) (7:43)
03. Tenth Chapter - Wired (Stonk Mix) (9:48)
04. Universal State Of Mind - All Because Of You (Mindsweeper Mix) (6:48)
05. Paul van Dyk - Sundae 6 A.M. (10:02)
06. Matrix - Train Of Thought (7:41)
07. Q-Lab - Q 3 (Live Recorded) (13:05)
08. Elysium - Subconsiousness (8:54)
09. Astralasia - Afterlife (8:31)

Отчёт EAC:


Exact Audio Copy V0.99 prebeta 3 from 28. July 2007

Отчёт EAC об извлечении, выполненном 18. сентября 2008, 17:26

Various / Cosmic Cubes Vol.IV (CD 1)

Дисковод: PIONEER DVD-RW DVR-212 Adapter: 3 ID: 0

Режим чтения : Достоверность
Использование точного потока : Да
Отключение кэша аудио : Да
Использование указателей C2 : Нет

Коррекция смещения при чтении : 48
Способность читать области Lead-in и Lead-out : Нет
Заполнение пропущенных сэмплов тишиной : Да
Удаление блоков с тишиной в начале и конце : Нет
При вычислениях CRC использовались нулевые сэмплы : Да
Интерфейс : Установленный внешний ASPI-интерфейс

Выходной формат : Внутренние WAV-операции
Формат сэмплов : 44.100 Гц; 16 бит; стерео

TOC извлечённого CD

Трек | Старт | Длительность | Начальный сектор | Конечный сектор
---------------------------------------------------------------------
1 | 0:00.00 | 5:10.25 | 0 | 23274
2 | 5:10.25 | 7:42.47 | 23275 | 57971
3 | 12:52.72 | 9:47.50 | 57972 | 102046
4 | 22:40.47 | 6:48.30 | 102047 | 132676
5 | 29:29.02 | 10:01.65 | 132677 | 177816
6 | 39:30.67 | 7:40.55 | 177817 | 212371
7 | 47:11.47 | 13:05.15 | 212372 | 271261
8 | 60:16.62 | 8:54.15 | 271262 | 311326
9 | 69:11.02 | 8:30.73 | 311327 | 349649

Характеристики диапазона извлечения и сообщения об ошибках

Выбранный диапазон

Имя файла E:\Музыка\Nrg\Электронная\VA Cosmic cubes vol 4\CD1\Various - Cosmic Cubes Vol.IV (CD 1).wav

Пиковый уровень 98.4 %
Качество диапазона 100.0 %
CRC копии 32E3849F
Копирование... OK

Ошибок не произошло

AccurateRip: сводка

Трек 1 точное извлечение (доверие 4) [34480255]
Трек 2 точное извлечение (доверие 4) [2ACA45BB]
Трек 3 точное извлечение (доверие 4) [61526F8E]
Трек 4 точное извлечение (доверие 4) [5B946AF6]
Трек 5 точное извлечение (доверие 4) [4108CF4C]
Трек 6 точное извлечение (доверие 4) [BF9D6E2D]
Трек 7 точное извлечение (доверие 4) [ABD8F967]
Трек 8 точное извлечение (доверие 4) [3F70DD99]
Трек 9 точное извлечение (доверие 4) [2AB77182]

Все треки извлечены точно

Конец отчёта

Cue Sheet (.cue):


REM GENRE Trance
REM DATE 1996
REM DISCID 73123609
REM COMMENT "ExactAudioCopy v0.99pb3"
PERFORMER "Various"
TITLE "Cosmic Cubes - A Cosmic Trance Compilation Vol. 4 CD1"
FILE "Various - Cosmic Cubes Vol. 4 CD1.flac" WAVE
TRACK 01 AUDIO
TITLE "The Spirit Of Justified (Tantra Dub)"
PERFORMER "Ritmo Di Vida"
INDEX 01 00:00:00
TRACK 02 AUDIO
TITLE "Party Spirit (Yum Yum Mix)"
PERFORMER "Deep Sound"
INDEX 00 05:10:20
INDEX 01 05:10:25
TRACK 03 AUDIO
TITLE "Wired (Stonk Mix)"
PERFORMER "Tenth Chapter"
INDEX 00 12:52:67
INDEX 01 12:52:72
TRACK 04 AUDIO
TITLE "All Because Of You (Mindsweeper Mix)"
PERFORMER "Universal State Of Mind"
INDEX 00 22:40:05
INDEX 01 22:40:47
TRACK 05 AUDIO
TITLE "Sundae 6 A.M."
PERFORMER "Paul van Dyk"
INDEX 00 29:29:00
INDEX 01 29:29:02
TRACK 06 AUDIO
TITLE "Train To Thought"
PERFORMER "Matrix"
INDEX 00 39:30:65
INDEX 01 39:30:67
TRACK 07 AUDIO
TITLE "Q 3 (Live Recorded)"
PERFORMER "Q-Lab"
INDEX 00 47:11:40
INDEX 01 47:11:47
TRACK 08 AUDIO
TITLE "Subconsiousness"
PERFORMER "Elysium"
INDEX 00 60:16:47
INDEX 01 60:16:62
TRACK 09 AUDIO
TITLE "Afterlife"
PERFORMER "Astralasia"
INDEX 00 69:10:70
INDEX 01 69:11:02

Отчёт auCDtect Task manager:


-----------------------

DON'T MODIFY THIS FILE

-----------------------

PERFORMER: auCDtect Task Manager, ver. 1.6.0 RC1 build 1.6.0.1
Copyright (c) 2008-2010 y-soft. All rights reserved
http://y-soft.org

ANALYZER: auCDtect: CD records authenticity detector, version 0.8.2
Copyright (c) 2004 Oleg Berngardt. All rights reserved.
Copyright (c) 2004 Alexander Djourik. All rights reserved.

FILE: Various - Cosmic Cubes Vol. 4 CD1.flac
Size: 510420003 Hash: 05E9E5D5DC8C40DF1D8AAD21EA068EEE Accuracy: -m0
Conclusion: CDDA 100%
Signature: 464AA13C740A9501EE5D6BEEF37CE85BD777CEA5
CD2
Продолжительноcть: 01:16:10
Треклиcт:
01. M.A.D. - T 96 (Trip Mix) (5:04)
02. Terra-C - Tommy (Island Mix) (7:42)
03. Mikerobenics - The Cat And The Canary (10:33)
04. Scancarriers - Nautilus (5:47)
05. Canyon - Cosmos (8:05)
06. Watchman - The Mission (Mission Prepare) (6:51)
07. Karamatix - Indian Flute (5:42)
08. DJ Warlock - Cosmic Wave (7:21)
09. Kinetico - Vallhalla (8:56)
10. N.D.M.A - The Answer (Gift) (10:05)

Отчёт EAC:


Exact Audio Copy V0.99 prebeta 3 from 28. July 2007

Отчёт EAC об извлечении, выполненном 18. сентября 2008, 17:45

Various / Cosmic Cubes Vol.IV (CD 2)

Дисковод: PIONEER DVD-RW DVR-212 Adapter: 3 ID: 0

Режим чтения : Достоверность
Использование точного потока : Да
Отключение кэша аудио : Да
Использование указателей C2 : Нет

Коррекция смещения при чтении : 48
Способность читать области Lead-in и Lead-out : Нет
Заполнение пропущенных сэмплов тишиной : Да
Удаление блоков с тишиной в начале и конце : Нет
При вычислениях CRC использовались нулевые сэмплы : Да
Интерфейс : Установленный внешний ASPI-интерфейс

Выходной формат : Внутренние WAV-операции
Формат сэмплов : 44.100 Гц; 16 бит; стерео

TOC извлечённого CD

Трек | Старт | Длительность | Начальный сектор | Конечный сектор
---------------------------------------------------------------------
1 | 0:00.00 | 5:03.35 | 0 | 22759
2 | 5:03.35 | 7:42.10 | 22760 | 57419
3 | 12:45.45 | 10:32.57 | 57420 | 104876
4 | 23:18.27 | 5:46.65 | 104877 | 130891
5 | 29:05.17 | 8:05.25 | 130892 | 167291
6 | 37:10.42 | 6:50.48 | 167292 | 198089
7 | 44:01.15 | 5:42.17 | 198090 | 223756
8 | 49:43.32 | 7:21.08 | 223757 | 256839
9 | 57:04.40 | 8:55.55 | 256840 | 297019
10 | 66:00.20 | 10:04.55 | 297020 | 342374

Характеристики диапазона извлечения и сообщения об ошибках

Выбранный диапазон

Имя файла E:\Музыка\Nrg\Электронная\VA Cosmic cubes vol 4\CD2\Various - Cosmic Cubes Vol.IV (CD 2).wav

Пиковый уровень 99.2 %
Качество диапазона 100.0 %
CRC копии CE2789B3
Копирование... OK

Ошибок не произошло

AccurateRip: сводка

Трек 1 точное извлечение (доверие 4) [7E1D12F9]
Трек 2 точное извлечение (доверие 4) [5CA53994]
Трек 3 точное извлечение (доверие 4) [984C54B3]
Трек 4 точное извлечение (доверие 4) [71745BBF]
Трек 5 точное извлечение (доверие 4) [68D6C9CB]
Трек 6 точное извлечение (доверие 4) [C3FAFDA9]
Трек 7 точное извлечение (доверие 4) [EE8FBF0A]
Трек 8 точное извлечение (доверие 3) [FC42A220]
Трек 9 точное извлечение (доверие 4) [CBBE7BDD]
Трек 10 точное извлечение (доверие 4) [695C8115]

Все треки извлечены точно

Конец отчёта

Cue Sheet (.cue):


REM GENRE Trance
REM DATE 1996
REM DISCID 8911D50A
REM COMMENT "ExactAudioCopy v0.99pb3"
PERFORMER "Various"
TITLE "Cosmic Cubes - A Cosmic Trance Compilation Vol. 4 CD2"
FILE "Various - Cosmic Cubes Vol. 4 CD2.flac" WAVE
TRACK 01 AUDIO
TITLE "T 96 (Trip Mix)"
PERFORMER "M.A.D."
INDEX 01 00:00:00
TRACK 02 AUDIO
TITLE "Tommy (Island Mix)"
PERFORMER "Terra-C"
INDEX 00 05:02:72
INDEX 01 05:03:35
TRACK 03 AUDIO
TITLE "The Cat And The Canary"
PERFORMER "Mikerobenics"
INDEX 00 12:45:35
INDEX 01 12:45:45
TRACK 04 AUDIO
TITLE "Nautilus"
PERFORMER "Scancarriers"
INDEX 00 23:18:25
INDEX 01 23:18:27
TRACK 05 AUDIO
TITLE "Cosmos"
PERFORMER "Canyon"
INDEX 00 29:05:15
INDEX 01 29:05:17
TRACK 06 AUDIO
TITLE "The Misson (Mission Prepare)"
PERFORMER "Watchman"
INDEX 00 37:10:09
INDEX 01 37:10:42
TRACK 07 AUDIO
TITLE "Indian Flute"
PERFORMER "Karamatix"
INDEX 00 44:01:00
INDEX 01 44:01:15
TRACK 08 AUDIO
TITLE "Cosmic Wave"
PERFORMER "DJ Warlock"
INDEX 00 49:43:27
INDEX 01 49:43:32
TRACK 09 AUDIO
TITLE "Vallhalla"
PERFORMER "Kinetico"
INDEX 00 57:04:31
INDEX 01 57:04:40
TRACK 10 AUDIO
TITLE "The Answer (Gift)"
PERFORMER "N.D.M.A"
INDEX 00 66:00:11
INDEX 01 66:00:20

Отчёт auCDtect Task manager:


-----------------------

DON'T MODIFY THIS FILE

-----------------------

PERFORMER: auCDtect Task Manager, ver. 1.6.0 RC1 build 1.6.0.1
Copyright (c) 2008-2010 y-soft. All rights reserved
http://y-soft.org

ANALYZER: auCDtect: CD records authenticity detector, version 0.8.2
Copyright (c) 2004 Oleg Berngardt. All rights reserved.
Copyright (c) 2004 Alexander Djourik. All rights reserved.

FILE: Various - Cosmic Cubes Vol. 4 CD2.flac
Size: 474521442 Hash: E60DE4DD6E7FF31A1AE8D6D15A8E11A0 Accuracy: -m0
Conclusion: CDDA 100%
Signature: A9EB098956379FE5A161CCEE61D1AF4342109139

1997 - Cosmic Cubes - A Cosmic Trance Compilation Vol. 5

CD1
Продолжительноcть: 01:16:10
Треклиcт:
01. Canyon - Enigma (8:29)
02. EQT - Far Beyond (5:27)
03. Flex - My Definiton Of Trance (7:24)
04. Intensity - Plonk (Tripped Out Mix) (6:57)
05. Humate & Rabbit In The Moon - East (Humate Remix) (8:08)
06. LSG - Netherworld (Jules Vernes Remix) (8:31)
07. The Art Of Trance - Kaleidoscope (Original 12 Mix) (8:12)
08. Albion - Air (6:43)
09. Armin - Blue Fear (8:04)
10. Dove Beat - La Paloma (Ocean Mix) (8:14)

Отчёт EAC:


Exact Audio Copy V0.99 prebeta 3 from 28. July 2007

Отчёт EAC об извлечении, выполненном 22. сентября 2008, 20:00

Various / Cosmic Cubes vol 5 cd 1

Дисковод: PIONEER DVD-RW DVR-212 Adapter: 3 ID: 0

Режим чтения : Достоверность
Использование точного потока : Да
Отключение кэша аудио : Да
Использование указателей C2 : Нет

Коррекция смещения при чтении : 48
Способность читать области Lead-in и Lead-out : Нет
Заполнение пропущенных сэмплов тишиной : Да
Удаление блоков с тишиной в начале и конце : Нет
При вычислениях CRC использовались нулевые сэмплы : Да
Интерфейс : Встроенный Win32-интерфейс для Win NT/2000

Выходной формат : Внутренние WAV-операции
Формат сэмплов : 44.100 Гц; 16 бит; стерео

TOC извлечённого CD

Трек | Старт | Длительность | Начальный сектор | Конечный сектор
---------------------------------------------------------------------
1 | 0:00.00 | 8:28.40 | 0 | 38139
2 | 8:28.40 | 5:27.05 | 38140 | 62669
3 | 13:55.45 | 7:24.07 | 62670 | 95976
4 | 21:19.52 | 6:57.25 | 95977 | 127276
5 | 28:17.02 | 8:07.38 | 127277 | 163839
6 | 36:24.40 | 8:30.45 | 163840 | 202134
7 | 44:55.10 | 8:11.40 | 202135 | 238999
8 | 53:06.50 | 6:42.42 | 239000 | 269191
9 | 59:49.17 | 8:03.48 | 269192 | 305464
10 | 67:52.65 | 8:14.00 | 305465 | 342514

Характеристики диапазона извлечения и сообщения об ошибках

Выбранный диапазон

Имя файла E:\Музыка\Nrg\Электронная\VA Cosmic cubes vol 5\CD1\Various - Cosmic Cubes vol 5 cd 1.wav

Пиковый уровень 98.8 %
Качество диапазона 99.9 %
CRC копии 6F251779
Копирование... OK

Ошибок не произошло

AccurateRip: сводка

Трек 1 точное извлечение (доверие 3) [09125F01]
Трек 2 точное извлечение (доверие 3) [2633C545]
Трек 3 точное извлечение (доверие 3) [A2A4D17F]
Трек 4 точное извлечение (доверие 3) [019E3600]
Трек 5 точное извлечение (доверие 3) [816FDD64]
Трек 6 точное извлечение (доверие 3) [609A03AC]
Трек 7 точное извлечение (доверие 3) [EE510117]
Трек 8 точное извлечение (доверие 3) [F6DB41E7]
Трек 9 точное извлечение (доверие 3) [5E625A54]
Трек 10 точное извлечение (доверие 3) [ABE3A00D]

Все треки извлечены точно

Конец отчёта

Cue Sheet (.cue):


REM GENRE Trance
REM DATE 1997
REM DISCID 9D11D60A
REM COMMENT "ExactAudioCopy v0.99pb3"
PERFORMER "Various"
TITLE "Cosmic Cubes - A Cosmic Trance Compilation Vol. 5 CD1"
FILE "Various - Cosmic Cubes Vol. 5 CD1.flac" WAVE
TRACK 01 AUDIO
TITLE "Enigma"
PERFORMER "Canyon"
INDEX 01 00:00:00
TRACK 02 AUDIO
TITLE "Far Beyond"
PERFORMER "EQT"
INDEX 00 08:28:30
INDEX 01 08:28:40
TRACK 03 AUDIO
TITLE "My Definition Of Trance"
PERFORMER "Flex"
INDEX 00 13:55:37
INDEX 01 13:55:45
TRACK 04 AUDIO
TITLE "Plonk (Tripped Out Mix)"
PERFORMER "Intensity"
INDEX 00 21:19:45
INDEX 01 21:19:52
TRACK 05 AUDIO
TITLE "East (Humate Remix)"
PERFORMER "Humate & Rabbit In The Moon"
INDEX 00 28:16:70
INDEX 01 28:17:02
TRACK 06 AUDIO
TITLE "Netherworld (Jules Vernes Remix)"
PERFORMER "LSG"
INDEX 00 36:24:35
INDEX 01 36:24:40
TRACK 07 AUDIO
TITLE "Kaleidoscope (Original 12''' Mix)"
PERFORMER "The Art Of Trance"
INDEX 00 44:54:67
INDEX 01 44:55:10
TRACK 08 AUDIO
TITLE "Air"
PERFORMER "Albion"
INDEX 01 53:06:50
TRACK 09 AUDIO
TITLE "Blue Fear"
PERFORMER "Armin"
INDEX 00 59:48:70
INDEX 01 59:49:17
TRACK 10 AUDIO
TITLE "La Paloma (Ocean Mix)"
PERFORMER "Dove Beat"
INDEX 01 67:52:65

Отчёт auCDtect Task manager:


-----------------------

DON'T MODIFY THIS FILE

-----------------------

PERFORMER: auCDtect Task Manager, ver. 1.6.0 RC1 build 1.6.0.1
Copyright (c) 2008-2010 y-soft. All rights reserved
http://y-soft.org

ANALYZER: auCDtect: CD records authenticity detector, version 0.8.2
Copyright (c) 2004 Oleg Berngardt. All rights reserved.
Copyright (c) 2004 Alexander Djourik. All rights reserved.

FILE: Various - Cosmic Cubes Vol. 5 CD1.flac
Size: 490141948 Hash: A45B7690ECEFB7266EA429E319436DD8 Accuracy: -m0
Conclusion: CDDA 100%
Signature: 61E28299730DED090C42161F114B34B6345C360C
CD2
Продолжительноcть: 01:11:37
Треклиcт:
01. Friends, Lovers & Family - Bells Of Brixton (Sadie Glutz Remix) (7:54)
02. Caunos - Straight (6:08)
03. DJ Tomcraft - Prosac (9:23)
04. Magnetic Fields - Magnetic Fields (Phasing Beat Mix) (6:21)
05. Planet B.E.N. - Screwdriver (7:26)
06. Dimension 5 - Deep Space 5D (9:10)
07. Killer Eyes - The Universe (4:53)
08. Citizen X - Red Signal (7:30)
09. Framic - Status X (6:46)
10. Trancelate - Sweet Music (Nostrum Remix) (6:03)

Отчёт EAC:


Exact Audio Copy V0.99 prebeta 3 from 28. July 2007

Отчёт EAC об извлечении, выполненном 22. сентября 2008, 20:14

Cosmic Cubes / Cosmic Cubes 05 (cd2)

Дисковод: PIONEER DVD-RW DVR-212 Adapter: 3 ID: 0

Режим чтения : Достоверность
Использование точного потока : Да
Отключение кэша аудио : Да
Использование указателей C2 : Нет

Коррекция смещения при чтении : 48
Способность читать области Lead-in и Lead-out : Нет
Заполнение пропущенных сэмплов тишиной : Да
Удаление блоков с тишиной в начале и конце : Нет
При вычислениях CRC использовались нулевые сэмплы : Да
Интерфейс : Встроенный Win32-интерфейс для Win NT/2000

Выходной формат : Внутренние WAV-операции
Формат сэмплов : 44.100 Гц; 16 бит; стерео

TOC извлечённого CD

Трек | Старт | Длительность | Начальный сектор | Конечный сектор
---------------------------------------------------------------------
1 | 0:00.00 | 7:54.07 | 0 | 35556
2 | 7:54.07 | 6:07.43 | 35557 | 63124
3 | 14:01.50 | 9:22.45 | 63125 | 105319
4 | 23:24.20 | 6:21.22 | 105320 | 133916
5 | 29:45.42 | 7:25.45 | 133917 | 167336
6 | 37:11.12 | 9:10.30 | 167337 | 208616
7 | 46:21.42 | 4:53.15 | 208617 | 230606
8 | 51:14.57 | 7:29.33 | 230607 | 264314
9 | 58:44.15 | 6:46.00 | 264315 | 294764
10 | 65:30.15 | 6:03.05 | 294765 | 321994

Характеристики диапазона извлечения и сообщения об ошибках

Выбранный диапазон

Имя файла E:\Музыка\Nrg\Электронная\VA Cosmic cubes vol 5\CD2\Cosmic Cubes - Cosmic Cubes 05 (cd2).wav

Пиковый уровень 98.8 %
Качество диапазона 99.9 %
CRC копии 048D0726
Копирование... OK

Ошибок не произошло

AccurateRip: сводка

Трек 1 точное извлечение (доверие 3) [73A9B29B]
Трек 2 точное извлечение (доверие 3) [968797C4]
Трек 3 точное извлечение (доверие 3) [896B6966]
Трек 4 точное извлечение (доверие 3) [D1632201]
Трек 5 точное извлечение (доверие 3) [BAC717C5]
Трек 6 точное извлечение (доверие 3) [58AA420B]
Трек 7 точное извлечение (доверие 3) [85BA43DF]
Трек 8 точное извлечение (доверие 3) [560B54C6]
Трек 9 точное извлечение (доверие 3) [30D26D15]
Трек 10 точное извлечение (доверие 3) [641E42CD]

Все треки извлечены точно

Конец отчёта

Cue Sheet (.cue):


REM GENRE Trance
REM DATE 1997
REM DISCID 9310C50A
REM COMMENT "ExactAudioCopy v0.99pb3"
PERFORMER "Various"
TITLE "Cosmic Cubes - A Cosmic Trance Compilation Vol. 5 CD2"
FILE "Various - Cosmic Cubes Vol. 5 CD2.flac" WAVE
TRACK 01 AUDIO
TITLE "Bells Of Brixton (Sadie Glutz Remix)"
PERFORMER "Friends, Lovers & Family"
INDEX 01 00:00:00
TRACK 02 AUDIO
TITLE "Straight"
PERFORMER "Caunos"
INDEX 00 07:53:72
INDEX 01 07:54:07
TRACK 03 AUDIO
TITLE "Prosac"
PERFORMER "DJ Tomcraft"
INDEX 00 14:01:45
INDEX 01 14:01:50
TRACK 04 AUDIO
TITLE "Magnetic Fields (Phasing Beat Mix)"
PERFORMER "Magnetic Fields"
INDEX 00 23:24:05
INDEX 01 23:24:20
TRACK 05 AUDIO
TITLE "Screwdriver"
PERFORMER "Planet B.E.N."
INDEX 00 29:45:10
INDEX 01 29:45:42
TRACK 06 AUDIO
TITLE "Deep Space 5D"
PERFORMER "Dimension 5"
INDEX 00 37:10:47
INDEX 01 37:11:12
TRACK 07 AUDIO
TITLE "The Universe"
PERFORMER "Killer Eyes"
INDEX 00 46:21:27
INDEX 01 46:21:42
TRACK 08 AUDIO
TITLE "Red Signal"
PERFORMER "Citizen X"
INDEX 00 51:14:47
INDEX 01 51:14:57
TRACK 09 AUDIO
TITLE "Status X"
PERFORMER "Framic"
INDEX 00 58:43:67
INDEX 01 58:44:15
TRACK 10 AUDIO
TITLE "Sweet Music (Nostrum Remix)"
PERFORMER "Trancelate"
INDEX 00 65:29:67
INDEX 01 65:30:15

Отчёт auCDtect Task manager:


-----------------------

DON'T MODIFY THIS FILE

-----------------------

PERFORMER: auCDtect Task Manager, ver. 1.6.0 RC1 build 1.6.0.1
Copyright (c) 2008-2010 y-soft. All rights reserved
http://y-soft.org

ANALYZER: auCDtect: CD records authenticity detector, version 0.8.2
Copyright (c) 2004 Oleg Berngardt. All rights reserved.
Copyright (c) 2004 Alexander Djourik. All rights reserved.

FILE: Various - Cosmic Cubes Vol. 5 CD2.flac
Size: 478055017 Hash: 6AFF67F30E211673E87B1C5AEE63289B Accuracy: -m0
Conclusion: CDDA 100%
Signature: D1FA7A9A62607024A26E8AAD2B1A4A203EFE7108

1997 - Cosmic Cubes - A Cosmic Trance Compilation Vol. 6

CD1
Продолжительноcть: 01:18:40
Треклиcт:
01. Fortunato & Montresor - Imagine (Imagination 1) (6:41)
02. Max 404 - Niceta (8:12)
03. Lava - Din (Der Dritte Raum Remix) (7:27)
04. Clockwork - Lolita (8:39)
05. Clanger - Seadog (Way out West Remix) (6:46)
06. Mindfeel - Cranium Heads Out (8:53)
07. Hydro - Liquid Prayers (Starecase's Aquabatics Mix) (7:23)
08. Sunday Club - Healing Dream (Paul van Dyk's Inner Mind Remix) (9:15)
09. Starforce - Stella Propella (Trance Mix) (6:04)
10. Astral Projection - Dancing Galaxy (9:14)

Отчёт EAC:


Exact Audio Copy V0.99 prebeta 3 from 28. July 2007

Отчёт EAC об извлечении, выполненном 22. сентября 2008, 20:48

Various / Cosmic Cubes 6 (CD1)

Дисковод: PIONEER DVD-RW DVR-212 Adapter: 3 ID: 0

Режим чтения : Достоверность
Использование точного потока : Да
Отключение кэша аудио : Да
Использование указателей C2 : Нет

Коррекция смещения при чтении : 48
Способность читать области Lead-in и Lead-out : Нет
Заполнение пропущенных сэмплов тишиной : Да
Удаление блоков с тишиной в начале и конце : Нет
При вычислениях CRC использовались нулевые сэмплы : Да
Интерфейс : Встроенный Win32-интерфейс для Win NT/2000

Выходной формат : Внутренние WAV-операции
Формат сэмплов : 44.100 Гц; 16 бит; стерео

TOC извлечённого CD

Трек | Старт | Длительность | Начальный сектор | Конечный сектор
---------------------------------------------------------------------
1 | 0:00.00 | 6:40.70 | 0 | 30069
2 | 6:40.70 | 8:12.17 | 30070 | 66986
3 | 14:53.12 | 7:27.20 | 66987 | 100531
4 | 22:20.32 | 8:39.30 | 100532 | 139486
5 | 30:59.62 | 6:45.55 | 139487 | 169916
6 | 37:45.42 | 8:53.05 | 169917 | 209896
7 | 46:38.47 | 7:23.10 | 209897 | 243131
8 | 54:01.57 | 9:14.50 | 243132 | 284731
9 | 63:16.32 | 6:03.43 | 284732 | 311999
10 | 69:20.00 | 9:14.00 | 312000 | 353549

Характеристики диапазона извлечения и сообщения об ошибках

Выбранный диапазон

Имя файла E:\Музыка\Nrg\Электронная\VA Cosmic cubes vol 6\CD1\Various - Cosmic Cubes 6 (CD1).wav

Пиковый уровень 98.4 %
Качество диапазона 99.9 %
CRC копии 94791BE3
Копирование... OK

Ошибок не произошло

AccurateRip: сводка

Трек 1 точное извлечение (доверие 3) [F9EBBFA7]
Трек 2 точное извлечение (доверие 3) [7EDCC231]
Трек 3 точное извлечение (доверие 3) [45668C43]
Трек 4 точное извлечение (доверие 3) [0CE9A299]
Трек 5 точное извлечение (доверие 3) [77A79405]
Трек 6 точное извлечение (доверие 3) [0273A034]
Трек 7 точное извлечение (доверие 3) [3506683E]
Трек 8 точное извлечение (доверие 3) [0AA86241]
Трек 9 точное извлечение (доверие 3) [EABF95FD]
Трек 10 точное извлечение (доверие 3) [75CD3B0E]

Все треки извлечены точно

Конец отчёта

Cue Sheet (.cue):


REM GENRE Trance
REM DATE 1997
REM DISCID 87126A0A
REM COMMENT "ExactAudioCopy v0.99pb3"
PERFORMER "Various"
TITLE "Cosmic Cubes - A Cosmic Trance Compilation Vol. 6 CD1"
FILE "Various - Cosmic Cubes Vol. 6 CD1.flac" WAVE
TRACK 01 AUDIO
TITLE "Imagine (Imagination 1)"
PERFORMER "Fortunato & Montresor"
INDEX 01 00:00:00
TRACK 02 AUDIO
TITLE "Niceta"
PERFORMER "Max 404"
INDEX 00 06:40:47
INDEX 01 06:40:70
TRACK 03 AUDIO
TITLE "Din (Der Dritte Raum Remix)"
PERFORMER "Lava"
INDEX 00 14:52:37
INDEX 01 14:53:12
TRACK 04 AUDIO
TITLE "Lolita"
PERFORMER "Clockwork"
INDEX 00 22:19:72
INDEX 01 22:20:32
TRACK 05 AUDIO
TITLE "Seadog (Way out West Remix)"
PERFORMER "Clanger"
INDEX 00 30:59:50
INDEX 01 30:59:62
TRACK 06 AUDIO
TITLE "Cranium Heads Out"
PERFORMER "Mindfeel"
INDEX 00 37:45:27
INDEX 01 37:45:42
TRACK 07 AUDIO
TITLE "Liquid Prayers (Starecase's Aquabatics Mix)"
PERFORMER "Hydro"
INDEX 00 46:38:42
INDEX 01 46:38:47
TRACK 08 AUDIO
TITLE "Healing Dream (Paul Van Dyk's Inner Mind Remix)"
PERFORMER "Sunday Club"
INDEX 00 54:01:45
INDEX 01 54:01:57
TRACK 09 AUDIO
TITLE "Stella Propella (Trance Mix)"
PERFORMER "Starforce"
INDEX 00 63:16:25
INDEX 01 63:16:32
TRACK 10 AUDIO
TITLE "Dancing Galaxy"
PERFORMER "Astral Projection"
INDEX 00 69:19:47
INDEX 01 69:20:00

Отчёт auCDtect Task manager:


-----------------------

DON'T MODIFY THIS FILE

-----------------------

PERFORMER: auCDtect Task Manager, ver. 1.6.0 RC1 build 1.6.0.1
Copyright (c) 2008-2010 y-soft. All rights reserved
http://y-soft.org

ANALYZER: auCDtect: CD records authenticity detector, version 0.8.2
Copyright (c) 2004 Oleg Berngardt. All rights reserved.
Copyright (c) 2004 Alexander Djourik. All rights reserved.

FILE: Various - Cosmic Cubes Vol. 6 CD1.flac
Size: 548146256 Hash: 9C934A2DF7B374AE634FDBD4F31AEC79 Accuracy: -m0
Conclusion: CDDA 100%
Signature: 24E6CEAA5BBA49F72DDE45F8831AC47EAB8D5554
CD2
Продолжительноcть: 01:19:01
Треклиcт:
01. Emmanuel Top - Turkish Bazar Part 2 (Massivo Vivona Remix) (8:04)
02. Blusonic - Deepseadiver (Talla 2XLC Remix) (5:51)
03. Master 3D & D.J. T-Rex - I Can Manage It (Extended Mix) (7:44)
04. DJ Jan - X-Santo (DJ Taucher Remix) (10:46)
05. Coral Reef - Swan Dive (Original Mix) (6:42)
06. Acid Rockers - Orion (8:01)
07. Scoopex - In My Dream (7:56)
08. Tom Wax & Jan Jacarta - Wormhole (7:24)
09. Sonic Experience - Music (Fusionmen Mix) (6:41)
10. Melonhaus - Asset Stripper (9:47)

Отчёт EAC:


Exact Audio Copy V0.99 prebeta 3 from 28. July 2007

Отчёт EAC об извлечении, выполненном 22. сентября 2008, 21:06

Various Artists / Cosmic Cubes 6 (CD2)

Дисковод: PIONEER DVD-RW DVR-212 Adapter: 3 ID: 0

Режим чтения : Достоверность
Использование точного потока : Да
Отключение кэша аудио : Да
Использование указателей C2 : Нет

Коррекция смещения при чтении : 48
Способность читать области Lead-in и Lead-out : Нет
Заполнение пропущенных сэмплов тишиной : Да
Удаление блоков с тишиной в начале и конце : Нет
При вычислениях CRC использовались нулевые сэмплы : Да
Интерфейс : Встроенный Win32-интерфейс для Win NT/2000

Выходной формат : Внутренние WAV-операции
Формат сэмплов : 44.100 Гц; 16 бит; стерео

TOC извлечённого CD

Трек | Старт | Длительность | Начальный сектор | Конечный сектор
---------------------------------------------------------------------
1 | 0:00.00 | 8:03.70 | 0 | 36294
2 | 8:03.70 | 5:51.30 | 36295 | 62649
3 | 13:55.25 | 7:44.27 | 62650 | 97476
4 | 21:39.52 | 10:46.20 | 97477 | 145946
5 | 32:25.72 | 6:41.53 | 145947 | 176074
6 | 39:07.50 | 8:01.07 | 176075 | 212156
7 | 47:08.57 | 7:55.35 | 212157 | 247816
8 | 55:04.17 | 7:23.58 | 247817 | 281099
9 | 62:28.00 | 6:41.20 | 281100 | 311194
10 | 69:09.20 | 9:46.55 | 311195 | 355199

Характеристики диапазона извлечения и сообщения об ошибках

Выбранный диапазон

Имя файла E:\Музыка\Nrg\Электронная\VA Cosmic cubes vol 6\CD2\Various Artists - Cosmic Cubes 6 (CD2).wav

Пиковый уровень 100.0 %
Качество диапазона 100.0 %
CRC копии 19857224
Копирование... OK

Ошибок не произошло

AccurateRip: сводка

Трек 1 точное извлечение (доверие 3) [67E04178]
Трек 2 точное извлечение (доверие 3) [44D7DEDA]
Трек 3 точное извлечение (доверие 3) [26129A21]
Трек 4 точное извлечение (доверие 3) [46AC6651]
Трек 5 точное извлечение (доверие 3) [9C156FBD]
Трек 6 точное извлечение (доверие 3) [10005A3F]
Трек 7 точное извлечение (доверие 3) [0ECD0C34]
Трек 8 точное извлечение (доверие 3) [09B8A4BC]
Трек 9 точное извлечение (доверие 3) [3067A0D3]
Трек 10 точное извлечение (доверие 3) [B4FC3956]

Все треки извлечены точно

Конец отчёта

Cue Sheet (.cue):


REM GENRE Trance
REM DATE 1997
REM DISCID 8412800A
REM COMMENT "ExactAudioCopy v0.99pb3"
PERFORMER "Various"
TITLE "Cosmic Cubes - A Cosmic Trance Compilation Vol. 6 CD2"
FILE "Various - Cosmic Cubes Vol. 6 CD2.flac" WAVE
TRACK 01 AUDIO
TITLE "Turkish Bazar Part 2 (Massivo Vivona Remix)"
PERFORMER "Emmanuel Top"
INDEX 01 00:00:00
TRACK 02 AUDIO
TITLE "Deepseadiver (Talla 2XLC Remix)"
PERFORMER "Blusonic"
INDEX 00 08:03:35
INDEX 01 08:03:70
TRACK 03 AUDIO
TITLE "I Can Manage It (Extended Mix)"
PERFORMER "Master 3D & D.J. T-Rex"
INDEX 00 13:55:17
INDEX 01 13:55:25
TRACK 04 AUDIO
TITLE "X-Santo (DJ Taucher Remix)"
PERFORMER "DJ Jan"
INDEX 00 21:39:05
INDEX 01 21:39:52
TRACK 05 AUDIO
TITLE "Swan Dive (Original Mix)"
PERFORMER "Coral Reef"
INDEX 00 32:25:17
INDEX 01 32:25:72
TRACK 06 AUDIO
TITLE "Orion"
PERFORMER "Acid Rockers"
INDEX 00 39:07:45
INDEX 01 39:07:50
TRACK 07 AUDIO
TITLE "In My Dream"
PERFORMER "Scoopex"
INDEX 00 47:08:30
INDEX 01 47:08:57
TRACK 08 AUDIO
TITLE "Wormhole"
PERFORMER "Tom Wax & Jan Jacarta"
INDEX 00 55:04:07
INDEX 01 55:04:17
TRACK 09 AUDIO
TITLE "Music (Fusionmen Mix)"
PERFORMER "Sonic Experience"
INDEX 00 62:27:52
INDEX 01 62:28:00
TRACK 10 AUDIO
TITLE "Asset Stripper"
PERFORMER "Melonhaus"
INDEX 00 69:09:12
INDEX 01 69:09:20

Отчёт auCDtect Task manager:


-----------------------

DON'T MODIFY THIS FILE

-----------------------

PERFORMER: auCDtect Task Manager, ver. 1.6.0 RC1 build 1.6.0.1
Copyright (c) 2008-2010 y-soft. All rights reserved
http://y-soft.org

ANALYZER: auCDtect: CD records authenticity detector, version 0.8.2
Copyright (c) 2004 Oleg Berngardt. All rights reserved.
Copyright (c) 2004 Alexander Djourik. All rights reserved.

FILE: Various - Cosmic Cubes Vol. 6 CD2.flac
Size: 532440670 Hash: B0D6C754B76DA4196D6864502F713975 Accuracy: -m0
Conclusion: CDDA 100%
Signature: CB54AF866BE1DE952099427546E0177A19BAD088



Поглощение/вытеснение
Только с согласия релизера

kudzin
Детали торрента:
Название:VA - Cosmic Cubes - A Cosmic Trance Compilation Vol. 1-6 (1994-1997) 6x2CD, Compilation [FLAC|Lossless|image + .cue] <Trance, Goa Trance, Progressive Trance>
Дата добавления:06 Дек 2018 18:37:43
Размер:5,66 GB
Раздают:7
Качают:1
Форум:Trance (Lossless)

All rights reserved © 2015-2018