TORRENTS45.XYZ

Скачать Колетт / Colette (2018) WEB-DLRip [MVO] [AD]


Колетт / Colette (2018) WEB-DLRip
Производство: Великобритания, США / Number 9 Films, Killer Films, Bold Films
Жанр: Драма, биография, история

Режиссер: Уош Уэстмоленд
Актеры: Кира Найтли, Доминик Уэст, Элинор Томлинсон, Фиона Шоу, Денис Гоф, Аийша Харт, Ребекка Рут, Аль Уивер, Кэролайн Болтон, Роберт Пью

Описание:
Яркая и талантливая Колетт пишет гениальные произведения, которые ее муж Вилли, посредственный писатель, выдает за свои. Книги становятся бестселлерами, а богемная пара превращается в сенсацию высшего света Парижа. Но когда Вилли пытается заставить Колетт написать еще один роман, она начинает борьбу за творческую свободу, бросая вызов общественным понятиям о литературе, моде и сексуальности.


Возраст: 18+ (зрителям, достигшим 18 лет. запрещено для детей)
Рейтинг MPAA: R (лицам до 17 лет обязательно присутствие взрослого)
Дата мировой премьеры: 20 января 2018
Дата премьеры в России: 29 ноября 2018


Продолжительность: 01:51:33
Качество видео: WEB-DLRip
Перевод: Многоголосый закадровый, любительский (MUZOBOZ)
Субтитры: Отсутствуют
Реклама: Присутствуют вставки текстовой рекламы

Видео: XviD, 720x304, ~1491 Kbps
Аудио: AC-3, 2 ch, 192 Kbps

MediaInfo:


Общее
Полное имя : E:\NNM\Колетт\Colette 2018 WEB-DLRip.avi
Формат : AVI
Формат/Информация : Audio Video Interleave
Профиль формата : OpenDML
Размер файла : 1,32 Гбайт
Продолжительность : 1 ч. 51 м.
Общий поток : 1695 Кбит/сек

Видео
Идентификатор : 0
Формат : MPEG-4 Visual
Профиль формата : Advanced Simple@L5
Настройки формата : BVOP2
Параметр BVOP формата : 2
Параметр QPel формата : Нет
Параметр GMC формата : Без точки перехода
Параметр матрицы формата : Default (MPEG)
Идентификатор кодека : XVID
Идентификатор кодека/Подсказка : XviD
Продолжительность : 1 ч. 51 м.
Битрейт : 1491 Кбит/сек
Ширина : 720 пикселей
Высота : 304 пикселя
Соотношение сторон : 2,35:1
Частота кадров : 23,976 (24000/1001) кадра/сек
Цветовое пространство : YUV
Субдискретизация насыщенности : 4:2:0
Битовая глубина : 8 бит
Тип развёртки : Прогрессивная
Метод сжатия : С потерями
Бит/(Пиксели*Кадры) : 0.284
Размер потока : 1,16 Гбайт (88%)
Библиотека кодирования : XviD 1.2.1 (UTC 2008-12-04)

Аудио
Идентификатор : 1
Формат : AC-3
Формат/Информация : Audio Coding 3
Идентификатор кодека : 2000
Продолжительность : 1 ч. 51 м.
Вид битрейта : Постоянный
Битрейт : 192 Кбит/сек
Каналы : 2 канала
Расположение каналов : Front: L R
Частота : 48,0 КГц
Частота кадров : 31,250 кадров/сек (1536 SPF)
Битовая глубина : 16 бит
Метод сжатия : С потерями
Размер потока : 153 Мбайт (11%)
Выравнивание : Соединение по промежуткам
Продолжительность промежутка : 32 мс. (0,77 видеокадр)
ServiceKind/String : Complete Main
Скриншоты:


Все одноименные релизы в Клубе

Смотреть Online

http://37.220.36.15/video/04b4d188f1ae6d04/iframe
Детали торрента:
Название:Колетт / Colette (2018) WEB-DLRip [MVO] [AD]
Дата добавления:06 Дек 2018 16:30:12
Размер:1,32 GB
Раздают:4
Качают:6
Форум:Новинки с Рекламой

All rights reserved © 2015-2018