TORRENTS45.XYZ

Скачать Миссия невыполнима: Последствия / Mission: Impossible - Fallout (2018) BDRip [H.264/1080p] [IMAX Edition]


Миссия невыполнима: Последствия / Mission: Impossible - Fallout (2018) BDRip [H.264/1080p] [IMAX Edition] «Когда миссия не оставляет выбора»
Производство: США, Китай, Франция, Норвегия / Alibaba Pictures
Жанр: боевик, триллер, приключения

Режиссер: Кристофер МакКуорри
Продюсер: Джей Джей Абрамс, Том Круз, Кристофер МакКуорри
Актеры: Том Круз, Ребекка Фергюсон (II), Генри Кавилл, Мишель Монахэн, Ванесса Кирби, Уэс Бентли, Саймон Пегг, Анджела Бассетт, Алек Болдуин, Винг Рэймс

Описание:
Итан Хант и его команда, а также недавно примкнувшие к ним союзники, вынуждены действовать наперегонки со временем, когда новая миссия идет не по плану.


Возраст: 16+ (зрителям, достигшим 16 лет)
Рейтинг MPAA: PG-13 (детям до 13 лет просмотр нежелателен)
Премьера (мир): 12 июля 2018
Премьера (РФ): 26 июля 2018, «Централ Партнершип»


Релиз от: qqss44 & MegaPeer
Продолжительность: 02:27:24
Качество: BDRip 1080p
Перевод: Дублированный (Лицензия EUR)
Субтитры: Русские форсированные (стилизованные, анимированные, вшиты в видео) + полные

Видео: H.264/AVC, 1920x1012, (1,897), 8888 kbps, 23.976 fps
Аудио: AC3, 6 ch, 640 kbps - Русский

Mediainfo:

Общее
Уникальный идентификатор : 180986261836133604145366859297328241973 (0x8828AFA5838FA6639FA31D22E9F09D35)
Полное имя : H:Mission.Impossible.Fallout.(2018).BDRip-1080p.MegaPeer.(qqss44).mkv
Формат : Matroska
Версия формата : Version 2
Размер файла : 9,76 Гбайт
Продолжительность : 2 ч. 27 м.
Общий поток : 9481 Кбит/сек
Название фильма : Mission.Impossible.Fallout.(2018).BDRip-1080p.MegaPeer.(qqss44)
Дата кодирования : UTC 2018-12-05 15:35:20
Программа кодирования : mkvmerge v7.8.0 ('River Man') 32bit built on Apr 3 2015 12:11:22
Библиотека кодирования : libebml v1.3.1 + libmatroska v1.4.2

Видео
Идентификатор : 1
Формат : AVC
Формат/Информация : Advanced Video Codec
Профиль формата : High@L4.1
Параметр CABAC формата : Да
Параметр ReFrames формата : 4 кадра
Идентификатор кодека : V_MPEG4/ISO/AVC
Продолжительность : 2 ч. 27 м.
Битрейт : 8888 Кбит/сек
Ширина : 1920 пикселей
Высота : 1012 пикселей
Соотношение сторон : 1,897
Режим частоты кадров : Постоянный
Частота кадров : 23,976 (24000/1001) кадра/сек
Цветовое пространство : YUV
Субдискретизация насыщенности : 4:2:0
Битовая глубина : 8 бит
Тип развёртки : Прогрессивная
Бит/(Пиксели*Кадры) : 0.191
Размер потока : 8,91 Гбайт (91%)
Библиотека кодирования : x264 core 152 r2851 ba24899
Настройки программы : cabac=1 / ref=4 / deblock=1:-3:-3 / analyse=0x3:0x113 / me=umh / subme=11 / psy=1 / psy_rd=1.00:0.00 / mixed_ref=1 / me_range=32 / chroma_me=1 / trellis=2 / 8x8dct=1 / cqm=0 / deadzone=21,11 / fast_pskip=0 / chroma_qp_offset=-2 / threads=12 / lookahead_threads=2 / sliced_threads=0 / nr=0 / decimate=0 / interlaced=0 / bluray_compat=0 / constrained_intra=0 / bframes=9 / b_pyramid=2 / b_adapt=2 / b_bias=0 / direct=3 / weightb=1 / open_gop=0 / weightp=2 / keyint=250 / keyint_min=23 / scenecut=40 / intra_refresh=0 / rc_lookahead=40 / rc=2pass / mbtree=0 / bitrate=8888 / ratetol=1.0 / qcomp=0.70 / qpmin=0 / qpmax=69 / qpstep=4 / cplxblur=20.0 / qblur=0.5 / vbv_maxrate=50000 / vbv_bufsize=62500 / nal_hrd=none / filler=0 / ip_ratio=1.40 / pb_ratio=1.30 / aq=3:0.70
Язык : English
Default : Да
Forced : Нет

Аудио
Идентификатор : 2
Формат : AC-3
Формат/Информация : Audio Coding 3
Расширение режима : CM (complete main)
Параметр Endianness формата : Big
Идентификатор кодека : A_AC3
Продолжительность : 2 ч. 27 м.
Вид битрейта : Постоянный
Битрейт : 640 Кбит/сек
Каналы : 6 каналов
Расположение каналов : Front: L C R, Side: L R, LFE
Частота : 48,0 КГц
Частота кадров : 31,250 кадров/сек (1536 spf)
Метод сжатия : С потерями
Размер потока : 675 Мбайт (7%)
Язык : Russian
Default : Да
Forced : Нет

Текст
Идентификатор : 3
Формат : UTF-8
Идентификатор кодека : S_TEXT/UTF8
Идентификатор кодека/Информация : UTF-8 Plain Text
Заголовок : FULL
Язык : Russian
Default : Нет
Forced : Нет

Меню
00:00:00.000 : en:00:00:00.000
00:10:37.011 : en:00:10:37.011
00:17:11.405 : en:00:17:11.405
00:26:57.241 : en:00:26:57.241
00:35:56.654 : en:00:35:56.654
00:49:18.414 : en:00:49:18.414
01:00:00.806 : en:01:00:00.806
01:10:23.719 : en:01:10:23.719
01:17:07.289 : en:01:17:07.289
01:28:28.470 : en:01:28:28.470
01:39:09.652 : en:01:39:09.652
01:46:26.547 : en:01:46:26.547
01:55:45.564 : en:01:55:45.564
02:03:10.592 : en:02:03:10.592
02:14:00.908 : en:02:14:00.908
02:19:48.088 : en:02:19:48.088

Трейлер:

YouTube
Скриншоты:

Релизы фильма "Миссия невыполнима: Последствия / Mission: Impossible - Fallout" на NNM Club

Смотреть Online

http://moonwalk.cc/video/8270d0037543fc46/iframe
Детали торрента:
Название:Миссия невыполнима: Последствия / Mission: Impossible - Fallout (2018) BDRip [H.264/1080p] [IMAX Edition]
Дата добавления:06 Дек 2018 14:50:25
Размер:9,76 GB
Раздают:16
Качают:17
Форум:Новинки (HD, UHD, UHD-LQ)

All rights reserved © 2015-2018