TORRENTS45.XYZ

Скачать Дубль два / Take Two (2018) WEBRip [H.264/1080p-LQ] (сезон 1, серии 1-13 из 13) TVShows


Дубль два / Take Two (2018) WEBRip [H.264/1080p-LQ] (сезон 1, серии 1-13 из 13) TVShows
Производство: США / Milmar Pictures
Жанр: драма, комедия, криминал, детектив

Режиссер: Гай Норман Би, Холли Дэйл, Брэд Тёрнер
Актеры: Ламонт Томпсон, Алийа О’Брайен, Элис Ли, Эдди Сибриан, Хезер Дорксен, Джордан Джаварис, Рэйчел Билсон, Ксавьер де Гузман, Алекс Черман, Фрейзер Айтчесон

Описание:
Потерявшая популярность телезвезда Сэм вышла из реабилитационной клиники и пытается перезапустить карьеру. Ради подготовки к потенциально хитовой роли она подряжается помощником частного детектива Эдди. И хотя тот сначала скептически относится к новой подчиненной, выясняется, что актерские навыки Сэм чрезвычайно полезны в подобной профессии.


Дата мировой премьеры: 21 июня 2018
Дата премьеры в России: 22 июня 2018

Продолжительность: ~ 00:43:00 серия
Качество видео: WEBRip
Перевод: Многоголосый закадровый, любительский TVShows
Субтитры: английские

Видео: AVC/H.264, 1920х1080, ~5990 Kbps
Аудио 1: AC3, 6 ch, 384 kbps - русский, многоголосый закадровый
Аудио 2: E-AC3, 6 ch, 640 kbps - английский

Mediainfo:


General
Unique ID : 43779301473860663968541492642119768432 (0x20EF96363FF3BB382B0C81D1AC895970)
Complete name : F:\Take.Two.S01.1080p.TVShows\Take.Two.S01E01.1080p.TVShows.mkv
Format : Matroska
Format version : Version 4 / Version 2
File size : 2.11 GiB
Duration : 43 min 2 s
Overall bit rate : 7 016 kb/s
Encoded date : UTC 2018-10-30 07:17:03
Writing application : mkvmerge v28.2.0 ('The Awakening') 32-bit
Writing library : libebml v1.3.6 + libmatroska v1.4.9

Video
ID : 1
Format : AVC
Format/Info : Advanced Video Codec
Format profile : High@L4
Format settings : CABAC / 4 Ref Frames
Format settings, CABAC : Yes
Format settings, ReFrames : 4 frames
Codec ID : V_MPEG4/ISO/AVC
Duration : 43 min 2 s
Bit rate : 5 990 kb/s
Width : 1 920 pixels
Height : 1 080 pixels
Display aspect ratio : 16:9
Frame rate mode : Constant
Frame rate : 23.976 (24000/1001) FPS
Color space : YUV
Chroma subsampling : 4:2:0
Bit depth : 8 bits
Scan type : Progressive
Bits/(Pixel*Frame) : 0.120
Stream size : 1.80 GiB (85%)
Default : Yes
Forced : No
Color range : Limited
Color primaries : BT.709
Transfer characteristics : BT.709
Matrix coefficients : BT.709

Audio #1
ID : 2
Format : AC-3
Format/Info : Audio Coding 3
Codec ID : A_AC3
Duration : 43 min 2 s
Bit rate mode : Constant
Bit rate : 384 kb/s
Channel(s) : 6 channels
Channel positions : Front: L C R, Side: L R, LFE
Sampling rate : 48.0 kHz
Frame rate : 31.250 FPS (1536 SPF)
Bit depth : 16 bits
Compression mode : Lossy
Stream size : 118 MiB (5%)
Title : TVShows
Language : Russian
Service kind : Complete Main
Default : Yes
Forced : No

Audio #2
ID : 3
Format : E-AC-3
Format/Info : Enhanced Audio Coding 3
Codec ID : A_EAC3
Duration : 43 min 2 s
Bit rate mode : Constant
Bit rate : 640 kb/s
Channel(s) : 6 channels
Channel positions : Front: L C R, Side: L R, LFE
Sampling rate : 48.0 kHz
Frame rate : 187.500 FPS (256 SPF)
Compression mode : Lossy
Stream size : 197 MiB (9%)
Title : Original
Language : English
Service kind : Complete Main
Default : No
Forced : No

Text
ID : 4
Format : UTF-8
Codec ID : S_TEXT/UTF8
Codec ID/Info : UTF-8 Plain Text
Duration : 42 min 55 s
Bit rate : 108 b/s
Count of elements : 1204
Stream size : 34.0 KiB (0%)
Title : English
Language : English
Default : No
Forced : No

Скриншоты:


Все одноименные релизы в Клубе

Смотреть Online

http://moonwalk.cc/serial/a2f7a04134e4e4fadcd34a019052407a/iframe
Детали торрента:
Название:Дубль два / Take Two (2018) WEBRip [H.264/1080p-LQ] (сезон 1, серии 1-13 из 13) TVShows
Дата добавления:06 Дек 2018 12:02:26
Размер:24,4 GB
Раздают:6
Качают:4
Форум:Зарубежные сериалы

All rights reserved © 2015-2018