TORRENTS45.XYZ

Скачать Подбросы (2018) WEB-DL [1080p] ATV


Подбросы (2018) WEB-DL [1080p] ATV
Производство: Россия, Ирландия, Литва, Франция / Arizona Productions, F&ME, «Компания Новые люди»
Жанр: Драма, Криминал

Режиссер: Иван И. Твердовский
Продюсер: Наталья Мокрицкая
Актеры: Денис Власенко, Анна Слю, Данил Стеклов, Павел Чинарёв, Вильма Кутавичюте, Александра Урсуляк, Максим Виторган, Александр Золотовицкий, Данила Ариков, Елена Коробанова

Описание:
Брошенный в младенчестве, Денис вырос и превратился в юношу с уникальной способностью не чувствовать боли. Внезапно жизнь молодого человека кардинально меняется: его находит мать и увозит жить в Москву. Она окружает Дениса заботой, вниманием, играет роль задушевной подружки и вводит юношу в загадочную среду столичных мошенников и коррупционеров. Ради материнской любви доверчивый паренек готов стать участником рискованной авантюры «сильных мира сего».


Возраст: 18+ (зрителям, достигшим 18 лет. запрещено для детей)
Дата мировой премьеры: 4 июля 2018
Дата российской премьеры: 22 ноября 2018, «Русский Репортаж»

Продолжительность: 01:23:09
Качество видео: WEB-DL 1080р
Перевод: Не требуется
Субтитры: Отсутствуют

Видео: H.264, 1920x804 (2.40:1), ~5116 kbps, 25.000 fps
Аудио: AAC, 2.0 ch, 164 Kbps - Русский iTunes

Mediainfo:

Код: выделить все

Общее
Полное имя                               : /Users/Torrents45.xyz/Подбросы.2018.WEB-DL.1080p.m4v
Формат                                   : MPEG-4
Идентификатор кодека                     : M4V  (M4V /M4A /mp42/isom)
Размер файла                             : 3,07 Гбайт
Продолжительность                        : 1 ч. 23 м.
Режим общего битрейта                    : Переменный
Общий поток                              : 5285 Кбит/сек
Название фильма                          : Подбросы
Исполнитель                              : Иван И. Твердовский
Режиссёр                                 : Иван И. Твердовский
Исполнитель                              : Денис Власенко / Анна Слю / Данил Стеклов / Павел Чинарёв / Вильма Кутавичюте / Александра Урсуляк / Максим Виторган
Сценарист                                : Иван И. Твердовский
Продюсер                                 : Наталья Мокрицкая
Студия-производитель                     : Arizona Productions, Новые люди
Жанр                                     : Русское кино
Тип содержимого                          : Short Film
Дата записи                              : UTC 2018-11-22 08:00:00
Дата кодирования                         : UTC 2018-12-06 06:15:34
Дата пометки                             : UTC 2018-12-06 06:19:16
Авторское право                          : © 2018 Russian Report
Обложка                                  : Yes
LongDescription                          : Брошенный в младенчестве, Денис вырос и превратился в юношу с уникальной способностью не чувствовать боли. Внезапно жизнь молодого человека кардинально меняется: его находит мать и увозит жить в Москву. Она окружает Дениса заботой, вниманием, играет роль задушевной подружки и вводит юношу в загадочную среду столичных мошенников и коррупционеров. Ради материнской любви доверчивый паренек готов стать участником рискованной авантюры «сильных мира сего».
AppleStoreCountry                        : Russia
AppleStoreCatalogID                      : 1440391653
ContentRating                            : ru-movie|18+|400|

Видео
Идентификатор                            : 1
Формат                                   : AVC
Формат/Информация                        : Advanced Video Codec
Профиль формата                          : High@L4
Настройки формата                        : CABAC / 4 Ref Frames
Параметр CABAC формата                   : Да
Параметр ReFrames формата                : 4 кадра
Идентификатор кодека                     : avc1
Идентификатор кодека/Информация          : Advanced Video Coding
Продолжительность                        : 1 ч. 23 м.
Битрейт                                  : 5116 Кбит/сек
Ширина                                   : 1920 пикселей
Высота                                   : 804 пикселя
Соотношение сторон                       : 2,40:1
Режим частоты кадров                     : Постоянный
Частота кадров                           : 25,000 кадров/сек
Цветовое пространство                    : YUV
Субдискретизация насыщенности            : 4:2:0
Битовая глубина                          : 8 бит
Тип развёртки                            : Прогрессивная
Бит/(Пиксели*Кадры)                      : 0.133
Размер потока                            : 2,97 Гбайт (97%)
Язык                                     : English
Дата кодирования                         : UTC 2018-12-06 06:15:34
Дата пометки                             : UTC 2018-12-06 06:19:16
Codec configuration box                  : avcC

Аудио
Идентификатор                            : 2
Формат                                   : AAC LC
Формат/Информация                        : Advanced Audio Codec Low Complexity
Идентификатор кодека                     : mp4a-40-2
Продолжительность                        : 1 ч. 23 м.
Вид битрейта                             : Переменный
Битрейт                                  : 164 Кбит/сек
Максимальный битрейт                     : 256 Кбит/сек
Каналы                                   : 2 канала
Channel layout                           : L R
Частота                                  : 48,0 КГц
Частота кадров                           : 46,875 кадров/сек (1024 SPF)
Метод сжатия                             : С потерями
Размер потока                            : 97,4 Мбайт (3%)
Язык                                     : Russian
Default                                  : Да
Alternate group                          : 1
Дата кодирования                         : UTC 2018-12-06 06:15:34
Дата пометки                             : UTC 2018-12-06 06:19:16
tagc                                     : public.main-program-content

iTunes Meta Tags:

Код: выделить все

Name: Подбросы
Artist: Иван И. Твердовский
Media Kind: Movie
HD Video: 1080p
Genre: Русское кино
Release Date: 2018-11-22T08:00:00Z
Long Description: Брошенный в младенчестве, Денис вырос и превратился в юношу с уникальной способностью не чувствовать боли. Внезапно жизнь молодого человека кардинально меняется: его находит мать и увозит жить в Москву. Она окружает Дениса заботой, вниманием, играет роль задушевной подружки и вводит юношу в загадочную среду столичных мошенников и коррупционеров. Ради материнской любви доверчивый паренек готов стать участником рискованной авантюры «сильных мира сего».
Rating: ru-movie|18+|400|
Studio: Arizona Productions, Новые люди
Cast: Денис Власенко, Анна Слю, Данил Стеклов, Павел Чинарёв, Вильма Кутавичюте, Александра Урсуляк, Максим Виторган
Director: Иван И. Твердовский
Producers: Наталья Мокрицкая
Screenwriters: Иван И. Твердовский
Copyright: © 2018 Russian Report
content ID: 1440391653
iTunes Country: 143469
Скриншоты:


Все одноименные релизы в Клубе

Смотреть Online

http://37.220.36.15/video/3bf2eedc8b65c4de/iframe
Детали торрента:
Название:Подбросы (2018) WEB-DL [1080p] ATV
Дата добавления:06 Дек 2018 09:24:40
Размер:3,07 GB
Раздают:12
Качают:7
Форум:Отечественное видео HD для устройств Apple

All rights reserved © 2015-2018