TORRENTS45.XYZ

Скачать Шерил Кроу - живой концерт в театре Capitol / Sheryl Crow - Live At The Capitol Theater (2018) BDRip [H.264/720p]


Шерил Кроу - живой концерт в театре Capitol / Sheryl Crow - Live At The Capitol Theater (2018) BDRip [H.264/720p]
Жанр: Музыка

Режиссер: Марк Ричи
Состав: Шерил Кроу - ведущий вокал, гитары, клавиши; Питер Страуд - музыкальный руководитель, гитары, бэк-вокал; Фред Элтрингем - барабаны; Одли Фрид - гитары; Джош Гранж - педаль, гитары и бэк-вокал; Дженнифер Гундерман - клавиши и бэк-вокал; Роберт Кернс - басс, акустическая и электрогитара, бонги и бэк-вокал

Описание:
10 ноября 2017 года, в историческом театре Капитолия в городе Порт-Честере, штата Нью-Йорк, Шерил Кроу выступила со своим заключительным концертом тура "Be Myself". Шерил Кроу была с новым превосходным составом и исполнила новые песни, которые вошли в восьмой студийный альбом.
Она исполнила ''Be Myself'' и из совсем недавних - ''Halfway There'' и ''Atom Bomb''; также были исполнены и старые хиты - "Comon' Comon", "All I Wanna Do", "Leaving Las Vegas", "First Cut Is The Deepest", "Soak Up The Sun", "If It Makes You Happy" и многие другие.
Став известной по всему в 1993 году с мультиплатиновым альбомом ''Tuesday Night Music Club'', в прошлом учитель музыки и студийный вокалист из города Кеннетт, штат Миссури стала лучшей певицей и поэтом-песенником своего поколения.



Продолжительность: 02:01:44
Качество видео: BDRip
Перевод: Отсутствует
Субтитры: нет

Видео: AVC/H.264, 1280х720, ~6000 kbps
Аудио: AC3, 6 ch, 448 kbps - английский

Треклист:

Треклист:
01. Every Day Is A Winding Road
02. A Change Would Do You Good
03. All I Wanna Do
04. My Favorite Mistake
05. Be Myself
06. Long Way Back Home
07. Run Baby Run
08. Can't Cry Anymore
09. The First Cut Is The Deepest
10. Atom Bomb
11. Halfway There
12. There Goes The Neighborhood
13. Leaving Las Vegas
14. Strong Enough
15. Heartbeat Away
16. Roller Skate
17. Best of Times
18. If It Makes You Happy
19. Soak Up The Sun
20. Midnight Rider
21. I Shall Believe

Mediainfo&Log:


x264 info: frame I:2134 Avg QP:18.75 size:113452
x264 info: frame P:38295 Avg QP:20.23 size: 53630
x264 info: frame B:134706 Avg QP:21.06 size: 23611

Unique ID : 287562913970178526624915156285633741033 (0xD8569A49F5C9DF8327E9BF95B9AA40E9)
Complete name : D:\Temp\Sheryl Crow 720p.mkv
Format : Matroska
Format version : Version 4 / Version 2
File size : 5.48 GiB
Duration : 2h 1mn
Overall bit rate : 6 449 Kbps
Writing library : Lavf57.71.100

Video
ID : 1
Format : AVC
Format/Info : Advanced Video Codec
Format profile : High@L4.1
Format settings, CABAC : Yes
Format settings, ReFrames : 9 frames
Codec ID : V_MPEG4/ISO/AVC
Duration : 2h 1mn
Bit rate : 6 000 Kbps
Width : 1 280 pixels
Height : 720 pixels
Display aspect ratio : 16:9
Frame rate mode : Constant
Frame rate : 23.976 fps
Color space : YUV
Chroma subsampling : 4:2:0
Bit depth : 8 bits
Scan type : Progressive
Bits/(Pixel*Frame) : 0.272
Stream size : 4.99 GiB (91%)
Writing library : x264 core 157 r2901M 7d0ff22
Encoding settings : cabac=1 / ref=9 / deblock=1:-3:-3 / analyse=0x3:0x133 / me=umh / subme=10 / psy=1 / psy_rd=1.05:0.10 / mixed_ref=1 / me_range=24 / chroma_me=1 / trellis=2 / 8x8dct=1 / cqm=0 / deadzone=21,11 / fast_pskip=0 / chroma_qp_offset=-3 / threads=5 / lookahead_threads=1 / sliced_threads=0 / nr=0 / decimate=0 / interlaced=0 / bluray_compat=0 / constrained_intra=0 / bframes=9 / b_pyramid=2 / b_adapt=2 / b_bias=0 / direct=1 / weightb=1 / open_gop=0 / weightp=2 / keyint=240 / keyint_min=24 / scenecut=40 / intra_refresh=0 / rc=2pass / mbtree=0 / bitrate=6000 / ratetol=1.0 / qcomp=0.70 / qpmin=3 / qpmax=69 / qpstep=4 / cplxblur=20.0 / qblur=0.5 / ip_ratio=1.40 / pb_ratio=1.30 / aq=2:1.00
Default : Yes
Forced : No

Audio
ID : 2
Format : AC-3
Format/Info : Audio Coding 3
Mode extension : CM (complete main)
Format settings, Endianness : Big
Codec ID : A_AC3
Duration : 2h 1mn
Bit rate mode : Constant
Bit rate : 448 Kbps
Channel(s) : 6 channels
Channel positions : Front: L C R, Side: L R, LFE
Sampling rate : 48.0 KHz
Bit depth : 16 bits
Compression mode : Lossy
Stream size : 390 MiB (7%)
Default : Yes
Forced : No
Скриншоты:


Все одноименные релизы на Torrents45.xyz
Детали торрента:
Название:Шерил Кроу - живой концерт в театре Capitol / Sheryl Crow - Live At The Capitol Theater (2018) BDRip [H.264/720p]
Дата добавления:06 Дек 2018 03:22:58
Размер:5,48 GB
Раздают:4
Качают:4
Форум:Концерты (HD, UHD, UHD-LQ)

All rights reserved © 2015-2018