TORRENTS45.XYZ

Скачать Полицейский с Рублёвки. Мы тебя найдем (2018) WEB-DL [H.264/1080p-LQ] (сезон 4, серии 1-8 из 8)


Полицейский с Рублёвки. Мы тебя найдем (2018) WEB-DL [H.264/1080p-LQ] (сезон 4, серии 1-8 из 8)
Производство: Россия / Legio Felix по заказу телеканала ТНТ
Жанр: комедия, криминал

Режиссер: Илья Куликов
Актеры: Александр Петров, Сергей Бурунов, София Каштанова, Александра Бортич, Татьяна Бабенкова, Роман Попов, Ростислав Гулбис, Сергей Штатнов, Светлана Суханова, Ирина Вилкова и др.

Описание:
Грише Измайлову и его начальнику Владимиру Яковлеву противостоит преступный гений, который решил сделать жизнь рублёвских обитателей невыносимой. Прежде спокойный и безопасный район теперь задыхается от беззакония, злодей посягнул даже на оплот правопорядка — отдел полиции «Барвиха». В борьбе с преступником полицейские решают применить своё тайное оружие: умения и таланты следователя Игоря Мухича.


Возраст: 16+ (зрителям, достигшим 16 лет)
Дата российской премьеры: 3 декабря 2018

Релиз от: Getty

Продолжительность: ~00:48:00 серия
Качество видео: WEB-DL

Видео: AVC/H.264, 1920x1080 (16:9), ~5000 Kbps
Аудио: AC3, 2 ch, 192 Kbps

Mediainfo:


Общее
Уникальный идентификатор : 211834863351838215924139579932136894398 (0x9F5DE920FA4472DE9CA3A3A4741AEFBE)
Полное имя : D:\Фильмы\Politseyskiy.s.Rublevki.s04.2018.WEB-DL.(1080p).Getty\Politseyskiy.s.Rublevki.s04e01.2018.WEB-DL.(1080p).Getty.mkv
Формат : Matroska
Версия формата : Version 4 / Version 2
Размер файла : 1,71 Гбайт
Продолжительность : 47 м. 18 с.
Режим общего битрейта : Постоянный
Общий поток : 5172 Кбит/сек
Название фильма : Politseyskiy.s.Rublevki.s04e01.2018.WEB-DL.(1080p).Getty
Дата кодирования : UTC 2018-12-03 07:15:35
Программа кодирования : mkvmerge v7.8.0 ('River Man') 32bit built on Mar 27 2015 16:18:02
Библиотека кодирования : libebml v1.3.1 + libmatroska v1.4.2

Видео
Идентификатор : 1
Формат : AVC
Формат/Информация : Advanced Video Codec
Профиль формата : Baseline@L4
Настройки формата : 4 Ref Frames
Параметр CABAC формата : Нет
Параметр RefFrames формата : 4 кадра
Идентификатор кодека : V_MPEG4/ISO/AVC
Продолжительность : 47 м. 18 с.
Вид битрейта : Постоянный
Битрейт : 5000 Кбит/сек
Ширина : 1920 пикселей
Высота : 1080 пикселей
Соотношение сторон : 16:9
Режим частоты кадров : Постоянный
Частота кадров : 25,000 кадров/сек
Стандарт вещания : PAL
Цветовое пространство : YUV
Субдискретизация насыщенности : 4:2:0
Битовая глубина : 8 бит
Тип развёртки : Прогрессивная
Бит/(Пиксели*Кадры) : 0.096
Размер потока : 1,64 Гбайт (96%)
Default : Да
Forced : Нет
Цветовой диапазон : Limited
Основные цвета : BT.709
Характеристики трансфера : BT.709
Коэффициенты матрицы : BT.709

Аудио
Идентификатор : 2
Формат : AC-3
Формат/Информация : Audio Coding 3
Идентификатор кодека : A_AC3
Продолжительность : 47 м. 18 с.
Вид битрейта : Постоянный
Битрейт : 192 Кбит/сек
Каналы : 2 канала
Расположение каналов : Front: L R
Частота : 48,0 КГц
Частота кадров : 31,250 кадров/сек (1536 SPF)
Битовая глубина : 16 бит
Метод сжатия : С потерями
Размер потока : 65,0 Мбайт (4%)
ServiceKind/String : Complete Main
Default : Да
Forced : Нет

Общее
Уникальный идентификатор : 220278824422158710318179413272160584769 (0xA5B8288D5ADE130F87A18506CF174441)
Полное имя : D:\Фильмы\Politseyskiy.s.Rublevki.s04.2018.WEB-DL.(1080p).Getty\Politseyskiy.s.Rublevki.s04e02.2018.WEB-DL.(1080p).Getty.mkv
Формат : Matroska
Версия формата : Version 4 / Version 2
Размер файла : 1,80 Гбайт
Продолжительность : 49 м. 44 с.
Режим общего битрейта : Постоянный
Общий поток : 5183 Кбит/сек
Название фильма : Politseyskiy.s.Rublevki.s04e02.2018.WEB-DL.(1080p).Getty
Дата кодирования : UTC 2018-12-04 07:57:14
Программа кодирования : mkvmerge v7.8.0 ('River Man') 32bit built on Mar 27 2015 16:18:02
Библиотека кодирования : libebml v1.3.1 + libmatroska v1.4.2

Видео
Идентификатор : 1
Формат : AVC
Формат/Информация : Advanced Video Codec
Профиль формата : Baseline@L4
Настройки формата : 4 Ref Frames
Параметр CABAC формата : Нет
Параметр RefFrames формата : 4 кадра
Идентификатор кодека : V_MPEG4/ISO/AVC
Продолжительность : 49 м. 44 с.
Вид битрейта : Постоянный
Битрейт : 5000 Кбит/сек
Ширина : 1920 пикселей
Высота : 1080 пикселей
Соотношение сторон : 16:9
Режим частоты кадров : Постоянный
Частота кадров : 25,000 кадров/сек
Стандарт вещания : PAL
Цветовое пространство : YUV
Субдискретизация насыщенности : 4:2:0
Битовая глубина : 8 бит
Тип развёртки : Прогрессивная
Бит/(Пиксели*Кадры) : 0.096
Размер потока : 1,73 Гбайт (96%)
Default : Да
Forced : Нет
Цветовой диапазон : Limited
Основные цвета : BT.709
Характеристики трансфера : BT.709
Коэффициенты матрицы : BT.709

Аудио
Идентификатор : 2
Формат : AC-3
Формат/Информация : Audio Coding 3
Идентификатор кодека : A_AC3
Продолжительность : 49 м. 44 с.
Вид битрейта : Постоянный
Битрейт : 192 Кбит/сек
Каналы : 2 канала
Расположение каналов : Front: L R
Частота : 48,0 КГц
Частота кадров : 31,250 кадров/сек (1536 SPF)
Битовая глубина : 16 бит
Метод сжатия : С потерями
Размер потока : 68,3 Мбайт (4%)
ServiceKind/String : Complete Main
Default : Да
Forced : Нет

Общее
Уникальный идентификатор : 244449861405606273355254518369957914058 (0xB7E754AF31781DABAD1455C0D47325CA)
Полное имя : D:\Фильмы\Politseyskiy.s.Rublevki.s04.2018.WEB-DL.(1080p).Getty\Politseyskiy.s.Rublevki.s04e03.2018.WEB-DL.(1080p).Getty.mkv
Формат : Matroska
Версия формата : Version 4 / Version 2
Размер файла : 1,67 Гбайт
Продолжительность : 46 м. 8 с.
Режим общего битрейта : Постоянный
Общий поток : 5181 Кбит/сек
Название фильма : Politseyskiy.s.Rublevki.s04e03.2018.WEB-DL.(1080p).Getty
Дата кодирования : UTC 2018-12-05 08:03:31
Программа кодирования : mkvmerge v7.8.0 ('River Man') 32bit built on Mar 27 2015 16:18:02
Библиотека кодирования : libebml v1.3.1 + libmatroska v1.4.2

Видео
Идентификатор : 1
Формат : AVC
Формат/Информация : Advanced Video Codec
Профиль формата : Baseline@L4
Настройки формата : 4 Ref Frames
Параметр CABAC формата : Нет
Параметр RefFrames формата : 4 кадра
Идентификатор кодека : V_MPEG4/ISO/AVC
Продолжительность : 46 м. 8 с.
Вид битрейта : Постоянный
Битрейт : 5000 Кбит/сек
Ширина : 1920 пикселей
Высота : 1080 пикселей
Соотношение сторон : 16:9
Режим частоты кадров : Постоянный
Частота кадров : 25,000 кадров/сек
Стандарт вещания : PAL
Цветовое пространство : YUV
Субдискретизация насыщенности : 4:2:0
Битовая глубина : 8 бит
Тип развёртки : Прогрессивная
Бит/(Пиксели*Кадры) : 0.096
Размер потока : 1,61 Гбайт (96%)
Default : Да
Forced : Нет
Цветовой диапазон : Limited
Основные цвета : BT.709
Характеристики трансфера : BT.709
Коэффициенты матрицы : BT.709

Аудио
Идентификатор : 2
Формат : AC-3
Формат/Информация : Audio Coding 3
Идентификатор кодека : A_AC3
Продолжительность : 46 м. 8 с.
Вид битрейта : Постоянный
Битрейт : 192 Кбит/сек
Каналы : 2 канала
Расположение каналов : Front: L R
Частота : 48,0 КГц
Частота кадров : 31,250 кадров/сек (1536 SPF)
Битовая глубина : 16 бит
Метод сжатия : С потерями
Размер потока : 63,4 Мбайт (4%)
ServiceKind/String : Complete Main
Default : Да
Forced : Нет

Общее
Уникальный идентификатор : 250518882551222372068516059948716454923 (0xBC782E876DD41E42A4F76B1F731CF40B)
Полное имя : D:\Фильмы\Politseyskiy.s.Rublevki.s04.2018.WEB-DL.(1080p).Getty\Politseyskiy.s.Rublevki.s04e04.2018.WEB-DL.(1080p).Getty.mkv
Формат : Matroska
Версия формата : Version 4 / Version 2
Размер файла : 1,77 Гбайт
Продолжительность : 48 м. 58 с.
Режим общего битрейта : Постоянный
Общий поток : 5183 Кбит/сек
Название фильма : Politseyskiy.s.Rublevki.s04e04.2018.WEB-DL.(1080p).Getty
Дата кодирования : UTC 2018-12-06 07:54:33
Программа кодирования : mkvmerge v7.8.0 ('River Man') 32bit built on Mar 27 2015 16:18:02
Библиотека кодирования : libebml v1.3.1 + libmatroska v1.4.2

Видео
Идентификатор : 1
Формат : AVC
Формат/Информация : Advanced Video Codec
Профиль формата : Baseline@L4
Настройки формата : 4 Ref Frames
Параметр CABAC формата : Нет
Параметр RefFrames формата : 4 кадра
Идентификатор кодека : V_MPEG4/ISO/AVC
Продолжительность : 48 м. 58 с.
Вид битрейта : Постоянный
Битрейт : 5000 Кбит/сек
Ширина : 1920 пикселей
Высота : 1080 пикселей
Соотношение сторон : 16:9
Режим частоты кадров : Постоянный
Частота кадров : 25,000 кадров/сек
Стандарт вещания : PAL
Цветовое пространство : YUV
Субдискретизация насыщенности : 4:2:0
Битовая глубина : 8 бит
Тип развёртки : Прогрессивная
Бит/(Пиксели*Кадры) : 0.096
Размер потока : 1,71 Гбайт (96%)
Default : Да
Forced : Нет
Цветовой диапазон : Limited
Основные цвета : BT.709
Характеристики трансфера : BT.709
Коэффициенты матрицы : BT.709

Аудио
Идентификатор : 2
Формат : AC-3
Формат/Информация : Audio Coding 3
Идентификатор кодека : A_AC3
Продолжительность : 48 м. 58 с.
Вид битрейта : Постоянный
Битрейт : 192 Кбит/сек
Каналы : 2 канала
Расположение каналов : Front: L R
Частота : 48,0 КГц
Частота кадров : 31,250 кадров/сек (1536 SPF)
Битовая глубина : 16 бит
Метод сжатия : С потерями
Размер потока : 67,2 Мбайт (4%)
ServiceKind/String : Complete Main
Default : Да
Forced : Нет

Общее
Уникальный идентификатор : 196739377896210562914784284873695116991 (0x9402A03BD6510BEFB39504EEA3973EBF)
Полное имя : D:\Фильмы\Politseyskiy.s.Rublevki.s04.2018.WEB-DL.(1080p).Getty\Politseyskiy.s.Rublevki.s04e05.2018.WEB-DL.(1080p).Getty.mkv
Формат : Matroska
Версия формата : Version 4 / Version 2
Размер файла : 1,56 Гбайт
Продолжительность : 42 м. 58 с.
Режим общего битрейта : Постоянный
Общий поток : 5182 Кбит/сек
Название фильма : Politseyskiy.s.Rublevki.s04e05.2018.WEB-DL.(1080p).Getty
Дата кодирования : UTC 2018-12-06 16:23:37
Программа кодирования : mkvmerge v7.8.0 ('River Man') 32bit built on Mar 27 2015 16:18:02
Библиотека кодирования : libebml v1.3.1 + libmatroska v1.4.2

Видео
Идентификатор : 1
Формат : AVC
Формат/Информация : Advanced Video Codec
Профиль формата : Baseline@L4
Настройки формата : 4 Ref Frames
Параметр CABAC формата : Нет
Параметр RefFrames формата : 4 кадра
Идентификатор кодека : V_MPEG4/ISO/AVC
Продолжительность : 42 м. 58 с.
Вид битрейта : Постоянный
Битрейт : 5000 Кбит/сек
Ширина : 1920 пикселей
Высота : 1080 пикселей
Соотношение сторон : 16:9
Режим частоты кадров : Постоянный
Частота кадров : 25,000 кадров/сек
Стандарт вещания : PAL
Цветовое пространство : YUV
Субдискретизация насыщенности : 4:2:0
Битовая глубина : 8 бит
Тип развёртки : Прогрессивная
Бит/(Пиксели*Кадры) : 0.096
Размер потока : 1,50 Гбайт (96%)
Default : Да
Forced : Нет
Цветовой диапазон : Limited
Основные цвета : BT.709
Характеристики трансфера : BT.709
Коэффициенты матрицы : BT.709

Аудио
Идентификатор : 2
Формат : AC-3
Формат/Информация : Audio Coding 3
Идентификатор кодека : A_AC3
Продолжительность : 42 м. 57 с.
Вид битрейта : Постоянный
Битрейт : 192 Кбит/сек
Каналы : 2 канала
Расположение каналов : Front: L R
Частота : 48,0 КГц
Частота кадров : 31,250 кадров/сек (1536 SPF)
Битовая глубина : 16 бит
Метод сжатия : С потерями
Размер потока : 59,0 Мбайт (4%)
ServiceKind/String : Complete Main
Default : Да
Forced : Нет

Общее
Уникальный идентификатор : 245512851575314386482985974007322618772 (0xB8B40E2564BD1EA8AA9E7904E9C3AB94)
Полное имя : D:\Фильмы\Politseyskiy.s.Rublevki.s04.2018.WEB-DL.(1080p).Getty\Politseyskiy.s.Rublevki.s04e06.2018.WEB-DL.(1080p).Getty.mkv
Формат : Matroska
Версия формата : Version 4 / Version 2
Размер файла : 1,71 Гбайт
Продолжительность : 47 м. 20 с.
Режим общего битрейта : Постоянный
Общий поток : 5185 Кбит/сек
Название фильма : Politseyskiy.s.Rublevki.s04e06.2018.WEB-DL.(1080p).Getty
Дата кодирования : UTC 2018-12-07 17:10:06
Программа кодирования : mkvmerge v7.8.0 ('River Man') 32bit built on Mar 27 2015 16:18:02
Библиотека кодирования : libebml v1.3.1 + libmatroska v1.4.2

Видео
Идентификатор : 1
Формат : AVC
Формат/Информация : Advanced Video Codec
Профиль формата : Baseline@L4
Настройки формата : 4 Ref Frames
Параметр CABAC формата : Нет
Параметр RefFrames формата : 4 кадра
Идентификатор кодека : V_MPEG4/ISO/AVC
Продолжительность : 47 м. 20 с.
Вид битрейта : Постоянный
Битрейт : 5000 Кбит/сек
Ширина : 1920 пикселей
Высота : 1080 пикселей
Соотношение сторон : 16:9
Режим частоты кадров : Постоянный
Частота кадров : 25,000 кадров/сек
Стандарт вещания : PAL
Цветовое пространство : YUV
Субдискретизация насыщенности : 4:2:0
Битовая глубина : 8 бит
Тип развёртки : Прогрессивная
Бит/(Пиксели*Кадры) : 0.096
Размер потока : 1,65 Гбайт (96%)
Default : Да
Forced : Нет
Цветовой диапазон : Limited
Основные цвета : BT.709
Характеристики трансфера : BT.709
Коэффициенты матрицы : BT.709

Аудио
Идентификатор : 2
Формат : AC-3
Формат/Информация : Audio Coding 3
Идентификатор кодека : A_AC3
Продолжительность : 47 м. 20 с.
Вид битрейта : Постоянный
Битрейт : 192 Кбит/сек
Каналы : 2 канала
Расположение каналов : Front: L R
Частота : 48,0 КГц
Частота кадров : 31,250 кадров/сек (1536 SPF)
Битовая глубина : 16 бит
Метод сжатия : С потерями
Размер потока : 65,0 Мбайт (4%)
ServiceKind/String : Complete Main
Default : Да
Forced : Нет

Общее
Уникальный идентификатор : 189514029097364729849029676050132887478 (0x8E931308BBB677BA984F55DD06C5E7B6)
Полное имя : D:\Фильмы\Politseyskiy.s.Rublevki.s04.2018.WEB-DL.(1080p).Getty\Politseyskiy.s.Rublevki.s04e07.2018.WEB-DL.(1080p).Getty.mkv
Формат : Matroska
Версия формата : Version 4 / Version 2
Размер файла : 1,63 Гбайт
Продолжительность : 44 м. 56 с.
Режим общего битрейта : Постоянный
Общий поток : 5180 Кбит/сек
Название фильма : Politseyskiy.s.Rublevki.s04e07.2018.WEB-DL.(1080p).Getty
Дата кодирования : UTC 2018-12-09 07:56:30
Программа кодирования : mkvmerge v7.8.0 ('River Man') 32bit built on Mar 27 2015 16:18:02
Библиотека кодирования : libebml v1.3.1 + libmatroska v1.4.2

Видео
Идентификатор : 1
Формат : AVC
Формат/Информация : Advanced Video Codec
Профиль формата : Baseline@L4
Настройки формата : 4 Ref Frames
Параметр CABAC формата : Нет
Параметр RefFrames формата : 4 кадра
Идентификатор кодека : V_MPEG4/ISO/AVC
Продолжительность : 44 м. 56 с.
Вид битрейта : Постоянный
Битрейт : 5000 Кбит/сек
Ширина : 1920 пикселей
Высота : 1080 пикселей
Соотношение сторон : 16:9
Режим частоты кадров : Постоянный
Частота кадров : 25,000 кадров/сек
Стандарт вещания : PAL
Цветовое пространство : YUV
Субдискретизация насыщенности : 4:2:0
Битовая глубина : 8 бит
Тип развёртки : Прогрессивная
Бит/(Пиксели*Кадры) : 0.096
Размер потока : 1,57 Гбайт (96%)
Default : Да
Forced : Нет
Цветовой диапазон : Limited
Основные цвета : BT.709
Характеристики трансфера : BT.709
Коэффициенты матрицы : BT.709

Аудио
Идентификатор : 2
Формат : AC-3
Формат/Информация : Audio Coding 3
Идентификатор кодека : A_AC3
Продолжительность : 44 м. 56 с.
Вид битрейта : Постоянный
Битрейт : 192 Кбит/сек
Каналы : 2 канала
Расположение каналов : Front: L R
Частота : 48,0 КГц
Частота кадров : 31,250 кадров/сек (1536 SPF)
Битовая глубина : 16 бит
Метод сжатия : С потерями
Размер потока : 61,7 Мбайт (4%)
ServiceKind/String : Complete Main
Default : Да
Forced : Нет

Общее
Уникальный идентификатор : 184995628532446995015211759343162544224 (0x8B2CDCAFC6CDDE97BE43C12ADFCED060)
Полное имя : D:\Фильмы\Politseyskiy.s.Rublevki.s04.2018.WEB-DL.(1080p).Getty\Politseyskiy.s.Rublevki.s04e08.2018.WEB-DL.(1080p).Getty.mkv
Формат : Matroska
Версия формата : Version 4 / Version 2
Размер файла : 1,83 Гбайт
Продолжительность : 50 м. 32 с.
Режим общего битрейта : Постоянный
Общий поток : 5172 Кбит/сек
Название фильма : Politseyskiy.s.Rublevki.s04e08.2018.WEB-DL.(1080p).Getty
Дата кодирования : UTC 2018-12-10 07:58:51
Программа кодирования : mkvmerge v7.8.0 ('River Man') 32bit built on Mar 27 2015 16:18:02
Библиотека кодирования : libebml v1.3.1 + libmatroska v1.4.2

Видео
Идентификатор : 1
Формат : AVC
Формат/Информация : Advanced Video Codec
Профиль формата : Baseline@L4
Настройки формата : 4 Ref Frames
Параметр CABAC формата : Нет
Параметр RefFrames формата : 4 кадра
Идентификатор кодека : V_MPEG4/ISO/AVC
Продолжительность : 50 м. 32 с.
Вид битрейта : Постоянный
Битрейт : 5000 Кбит/сек
Ширина : 1920 пикселей
Высота : 1080 пикселей
Соотношение сторон : 16:9
Режим частоты кадров : Постоянный
Частота кадров : 25,000 кадров/сек
Стандарт вещания : PAL
Цветовое пространство : YUV
Субдискретизация насыщенности : 4:2:0
Битовая глубина : 8 бит
Тип развёртки : Прогрессивная
Бит/(Пиксели*Кадры) : 0.096
Размер потока : 1,76 Гбайт (96%)
Default : Да
Forced : Нет
Цветовой диапазон : Limited
Основные цвета : BT.709
Характеристики трансфера : BT.709
Коэффициенты матрицы : BT.709

Аудио
Идентификатор : 2
Формат : AC-3
Формат/Информация : Audio Coding 3
Идентификатор кодека : A_AC3
Продолжительность : 50 м. 32 с.
Вид битрейта : Постоянный
Битрейт : 192 Кбит/сек
Каналы : 2 канала
Расположение каналов : Front: L R
Частота : 48,0 КГц
Частота кадров : 31,250 кадров/сек (1536 SPF)
Битовая глубина : 16 бит
Метод сжатия : С потерями
Размер потока : 69,4 Мбайт (4%)
ServiceKind/String : Complete Main
Default : Да
Forced : Нет

Внимание! Раздача ведётся путём добавления новых серий

Внимание! Раздача ведётся путём добавления новых серий; при каждом добавлении создаётся новый торрент.
Чтобы начать докачку новой серии, пользователям необходимо сделать следующее:
1. Остановить скачивание;
2. Удалить старый торрент у себя из клиента (старые серии удалять не надо);
3. Скачать новый торрент и запустить его у себя в клиенте вместо старого, при этом указать клиенту путь в старую папку куда и должно происходить скачивание новых серий. Ваш клиент при этом должен произвести хеширование (проверку) старой папки и будет докачивать только те серии, которых у вас ещё нет. Старые серии при этом не удаляются, а продолжают раздаваться! Eсли вы уже удалили старые серии, то предотвратить повторную закачку старых серий можно, отжав галочку в соответствующих местах при запуске нового торрента.
Скриншоты:


Все одноименные релизы в Клубе

Смотреть Online


Детали торрента:
Название:Полицейский с Рублёвки. Мы тебя найдем (2018) WEB-DL [H.264/1080p-LQ] (сезон 4, серии 1-8 из 8)
Дата добавления:10 Дек 2018 13:24:35
Размер:13,7 GB
Раздают:180
Качают:16
Форум:Отечественные сериалы

All rights reserved © 2015-2019