TORRENTS45.XYZ

Скачать Полицейский с Рублёвки. Мы тебя найдем (2018) WEB-DL [H.264/1080p-LQ] (сезон 4, серии 1 из 8) (обновляемая)


Полицейский с Рублёвки. Мы тебя найдем (2018) WEB-DL [H.264/1080p-LQ] (сезон 4, серии 1 из 8) (обновляемая)
Производство: Россия / Legio Felix по заказу телеканала ТНТ
Жанр: комедия, криминал

Режиссер: Илья Куликов
Актеры: Александр Петров, Сергей Бурунов, София Каштанова, Александра Бортич, Татьяна Бабенкова, Роман Попов, Ростислав Гулбис, Сергей Штатнов, Светлана Суханова, Ирина Вилкова и др.

Описание:
Грише Измайлову и его начальнику Владимиру Яковлеву противостоит преступный гений, который решил сделать жизнь рублёвских обитателей невыносимой. Прежде спокойный и безопасный район теперь задыхается от беззакония, злодей посягнул даже на оплот правопорядка — отдел полиции «Барвиха». В борьбе с преступником полицейские решают применить своё тайное оружие: умения и таланты следователя Игоря Мухича.


Возраст: 16+ (зрителям, достигшим 16 лет)
Дата российской премьеры: 3 декабря 2018

Релиз от: Getty

Продолжительность: ~00:48:00 серия
Качество видео: WEB-DL

Видео: AVC/H.264, 1920x1080 (16:9), ~5000 Kbps
Аудио: AC3, 2 ch, 192 Kbps

Mediainfo:


Общее
Уникальный идентификатор : 211834863351838215924139579932136894398 (0x9F5DE920FA4472DE9CA3A3A4741AEFBE)
Полное имя : D:\Фильмы\Politseyskiy.s.Rublevki.s04.2018.WEB-DL.(1080p).Getty\Politseyskiy.s.Rublevki.s04e01.2018.WEB-DL.(1080p).Getty.mkv
Формат : Matroska
Версия формата : Version 4 / Version 2
Размер файла : 1,71 Гбайт
Продолжительность : 47 м. 18 с.
Режим общего битрейта : Постоянный
Общий поток : 5172 Кбит/сек
Название фильма : Politseyskiy.s.Rublevki.s04e01.2018.WEB-DL.(1080p).Getty
Дата кодирования : UTC 2018-12-03 07:15:35
Программа кодирования : mkvmerge v7.8.0 ('River Man') 32bit built on Mar 27 2015 16:18:02
Библиотека кодирования : libebml v1.3.1 + libmatroska v1.4.2

Видео
Идентификатор : 1
Формат : AVC
Формат/Информация : Advanced Video Codec
Профиль формата : Baseline@L4
Настройки формата : 4 Ref Frames
Параметр CABAC формата : Нет
Параметр RefFrames формата : 4 кадра
Идентификатор кодека : V_MPEG4/ISO/AVC
Продолжительность : 47 м. 18 с.
Вид битрейта : Постоянный
Битрейт : 5000 Кбит/сек
Ширина : 1920 пикселей
Высота : 1080 пикселей
Соотношение сторон : 16:9
Режим частоты кадров : Постоянный
Частота кадров : 25,000 кадров/сек
Стандарт вещания : PAL
Цветовое пространство : YUV
Субдискретизация насыщенности : 4:2:0
Битовая глубина : 8 бит
Тип развёртки : Прогрессивная
Бит/(Пиксели*Кадры) : 0.096
Размер потока : 1,64 Гбайт (96%)
Default : Да
Forced : Нет
Цветовой диапазон : Limited
Основные цвета : BT.709
Характеристики трансфера : BT.709
Коэффициенты матрицы : BT.709

Аудио
Идентификатор : 2
Формат : AC-3
Формат/Информация : Audio Coding 3
Идентификатор кодека : A_AC3
Продолжительность : 47 м. 18 с.
Вид битрейта : Постоянный
Битрейт : 192 Кбит/сек
Каналы : 2 канала
Расположение каналов : Front: L R
Частота : 48,0 КГц
Частота кадров : 31,250 кадров/сек (1536 SPF)
Битовая глубина : 16 бит
Метод сжатия : С потерями
Размер потока : 65,0 Мбайт (4%)
ServiceKind/String : Complete Main
Default : Да
Forced : Нет

Внимание! Раздача ведётся путём добавления новых серий

Внимание! Раздача ведётся путём добавления новых серий; при каждом добавлении создаётся новый торрент.
Чтобы начать докачку новой серии, пользователям необходимо сделать следующее:
1. Остановить скачивание;
2. Удалить старый торрент у себя из клиента (старые серии удалять не надо);
3. Скачать новый торрент и запустить его у себя в клиенте вместо старого, при этом указать клиенту путь в старую папку куда и должно происходить скачивание новых серий. Ваш клиент при этом должен произвести хеширование (проверку) старой папки и будет докачивать только те серии, которых у вас ещё нет. Старые серии при этом не удаляются, а продолжают раздаваться! Eсли вы уже удалили старые серии, то предотвратить повторную закачку старых серий можно, отжав галочку в соответствующих местах при запуске нового торрента.
Скриншоты:


Все одноименные релизы в Клубе

Смотреть Online

http://moonwalk.cc/serial/ee19ba29e27241fe724d4f12cb2f8e5a/iframe
Детали торрента:
Название:Полицейский с Рублёвки. Мы тебя найдем (2018) WEB-DL [H.264/1080p-LQ] (сезон 4, серии 1 из 8) (обновляемая)
Дата добавления:04 Дек 2018 08:37:02
Размер:1,71 GB
Раздают:59
Качают:20
Форум:Отечественные сериалы

All rights reserved © 2015-2018