TORRENTS45.XYZ

Скачать Ракетный щит Родины (2018) SATRip (1 серия из ??) (Обновляемая)


Ракетный щит Родины (2018) SATRip
Производство: Россия, ООО «ВИАНЖ ПРОДАКШН»
Жанр: Документальный, вооружение, история

Описание:
Холодная война между СССР и США послужила катализатором стремительного совершенствования различных видов вооружений. И наиболее бурно развивалось ракетное оружие. Оно проникло во все области военного дела. Ракетами вооружили самолёты и вертолёты, бронетехнику, надводные корабли и подводные лодки. Ракеты стали надёжным средством борьбы с танками, живой силой, средствами морского и воздушного нападения. Баллистические ракеты с ядерной боевой частью вошли в состав стратегических сил. Сегодня ракетное оружие является основой боевой мощи армии и флота Российской Федерации.

Релиз от: alf62
Продолжительность: 1 х ~ 00:38:38
Качество видео: SATRip

Видео: Xvid, 720x400, ~1900 Kbps
Аудио: AC3, 2 ch, 192 Kbps

Список серий

1-я серия
Август 1945 года. Атомная бомбардировка американцами японских городов Хиросима и Нагасаки показало всему миру, что США обладают оружием невиданной до этого разрушительной силы. Уже к концу 45-го года в США был разработан первый план по нанесению подобных ударов по городам СССР. Наличие у Соединённых Штатов ядерной бомбы чрезвычайно беспокоило высшее руководство Советского Союза. Страна, лежащая в руинах после Великой Отечественной войны, была вынуждена втянуться в новое противостояние, и времени даже на малейшую передышку не оставалось. Разработка в СССР подобного оружия стала задачей первостепенной важности. Помимо собственно ядерного заряда надо было создать и средства его доставки. Одним из них были тяжёлые самолёты-бомбардировщики. Однако куда перспективнее виделись баллистические ракеты. Они были в разы быстрее самолётов, и бороться с ними было гораздо сложнее.

2-я серия
В 1962-м на вооружение стратегического авиационного командования США поступили новые межконтинентальные баллистические ракеты «Минитмэн», разработанные компанией «Боинг». Они были компактнее своих предшественниц, их было проще эксплуатировать. И главное, они могли находиться в постоянной боевой готовности годами и стартовать через считанные минуты. Советские ракеты такими возможностями в то время не обладали. Американцы сделали «Минитмэны» основой своего ракетно-ядерного потенциала. Ставка была на относительную простоту этих ракет. Их должно было быть много, чтобы часть из них гарантированно выжила в случае начала ядерного конфликта с Советским Союзом. Всего на дежурство было поставлено 800 «Минитмэнов». Советские вооружённые силы такого внушительного арсенала не имели. Нужно было как можно быстрее ликвидировать почти четырёхкратное отставание.

3-я серия
4 октября 1957 года СССР впервые в мире запустил искусственный спутник земли. Радостное для советского народа событие вызвало настоящую панику у американцев. В США поняли, что советские конструкторы далеко продвинулись в ракетостроении, им под силу создать ракету, способную долететь до североамериканского континента. Теперь нападение на СССР с использованием ядерного оружия грозило обернуться не менее сокрушительным ударом по собственной территории. И тогда американцы выдвинули идею так называемой ограниченной ядерной войны. Предполагалось, что для решения задач на европейском театре военных действий США могут пойти на применение небольшого числа тактических, то есть относительно маломощных ядерных боезарядов. Но с их помощью решить все задачи на поле боя было нельзя. В таких условиях сухопутные войска нуждались в новых системах обычного неядерного оружия.

4-я серия
Вторая половина 50-х годов XX века. В Советский Союз стали поступать сведения о принятии на вооружение истребительной авиации США принципиально нового вида авиационного оружия - управляемых ракет класса «воздух-воздух». Они могли поразить противника на удалении до десяти километров. В СССР работы в этом направлении также велись, но результаты были куда скромнее. И для атак воздушных целей самолёты по-прежнему вооружались в основном пушками. Их дальность стрельбы не превышала одного километра. Проигрывали они ракетам и в мощности боевой части своих снарядов. К тому моменту гонка вооружений между СССР и США набирала обороты, и наличие у американцев управляемого авиационного оружия давало им преимущество. Необходим был адекватный ответ.

Mediainfo:


Общее
Полное имя : D:\Запись\Ракетный щит Родины\Ракетный.щит.Родины.2018.XviD.SATRip.alf62\Ракетный.щит.Родины.(01.серия).2018.XviD.SATRip.alf62.avi
Формат : AVI
Формат/Информация : Audio Video Interleave
Размер файла : 553 Мбайт
Продолжительность : 38 м.
Общий поток : 2002 Кбит/сек
Программа кодирования : VirtualDubMod 1.5.10.3 | www.virtualdub-fr.org || (build 2550/release)
Библиотека кодирования : VirtualDubMod build 2550/release

Видео
Идентификатор : 0
Формат : MPEG-4 Visual
Профиль формата : Advanced Simple@L5
Параметр BVOP формата : 2
Параметр QPel формата : Нет
Параметр GMC формата : Без точки перехода
Параметр матрицы формата : Default (MPEG)
Идентификатор кодека : XVID
Идентификатор кодека/Подсказка : XviD
Продолжительность : 38 м.
Битрейт : 1800 Кбит/сек
Ширина : 720 пикселей
Высота : 400 пикселей
Соотношение сторон : 16:9
Частота кадров : 25,000 кадров/сек
Цветовое пространство : YUV
Субдискретизация насыщенности : 4:2:0
Битовая глубина : 8 бит
Тип развёртки : Прогрессивная
Метод сжатия : С потерями
Бит/(Пиксели*Кадры) : 0.250
Размер потока : 497 Мбайт (90%)
Библиотека кодирования : XviD 73

Аудио
Идентификатор : 1
Формат : AC-3
Формат/Информация : Audio Coding 3
Расширение режима : CM (complete main)
Параметр Endianness формата : Big
Идентификатор кодека : 2000
Продолжительность : 38 м.
Вид битрейта : Постоянный
Битрейт : 192 Кбит/сек
Каналы : 2 канала
Расположение каналов : Front: L R
Частота : 48,0 КГц
Частота кадров : 31,250 кадров/сек (1536 spf)
Метод сжатия : С потерями
Размер потока : 53,1 Мбайт (10%)
Выравнивание : Разделение по промежуткам
Продолжительность промежутка : 40 мс. (1,00 видеокадр)
Время предзагрузки промежутка : 500 мс.
Скриншоты:

Дополнительные скриншоты:



Все одноименные релизы в Клубе
Детали торрента:
Название:Ракетный щит Родины (2018) SATRip (1 серия из ??) (Обновляемая)
Дата добавления:03 Дек 2018 16:02:38
Размер:553 MB
Раздают:10
Качают:3
Форум:Военное дело

All rights reserved © 2015-2018