TORRENTS45.XYZ

Скачать Улетный экипаж (2018) WEB-DLRip (сезон 2, серии 1-21 из 21)


Улетный экипаж (2018) WEB-DLRip
Производство: Россия / Продюсерский центр «ГОРАД», при участии «ВВП Альянс»
Жанр: комедия

Режиссер: Марюс Вайсберг, Ольга Липатова, Дмитрий Губарев
Актеры: Алексей Чадов, Наталья Бардо, Никита Тарасов, Юлия Топольницкая, Виктория Дайнеко, Яна Крайнова, Катрин Асси, Сергей Белов, Андрей Родной, Илья Рогов и др.

Описание:
«Девушка за штурвалом самолёта – что может быть хуже?» – думал пилот Лёша Кулагин, пока его страхи не оправдались. С помощью шантажа умница, красавица и лучшая в лётном училище Полина Овечкина уговаривает упрямого грубияна бросить грузовые самолёты, возглавить гражданский экипаж и взять её вторым пилотом. Просто Кулагин – единственный шанс Полины, наконец-то, отточить теоретические знания на практике. Ведь лётчики авиакомпании «Восторг Авиа» не готовы делить самолёт хоть и с профессионалом, но на каблуках. Пока она пытается подружиться с новым коллегой, Кулагин строит коварные планы, чтобы вернуть ненавистную соседку на землю.


Возраст: 16+ (зрителям, достигшим 16 лет)

Продолжительность: ~00:25:00 серия
Качество видео: WEB-DLRip

Видео: Xvid, 720x400 (16:9), ~1620 Kbps
Аудио: AC3, 2 ch, 192 Kbps

Mediainfo:


Общее
Полное имя : G:\Улетный экипаж (Сезон 2).2018\Серия 01.avi
Формат : AVI
Формат/Информация : Audio Video Interleave
Размер файла : 303 Мбайт
Продолжительность : 23 м. 18 с.
Общий поток : 1820 Кбит/сек
Программа кодирования : VirtualDubMod 1.5.10.3 | www.virtualdub-fr.org || (build 2550/release)
Библиотека кодирования : VirtualDubMod build 2550/release

Видео
Идентификатор : 0
Формат : MPEG-4 Visual
Профиль формата : Advanced Simple@L5
Настройки формата : BVOP1
Параметр BVOP формата : 1
Параметр QPel формата : Нет
Параметр GMC формата : Без точки перехода
Параметр матрицы формата : Default (MPEG)
Идентификатор кодека : XVID
Идентификатор кодека/Подсказка : XviD
Продолжительность : 23 м. 18 с.
Битрейт : 1618 Кбит/сек
Ширина : 720 пикселей
Высота : 400 пикселей
Соотношение сторон : 16:9
Частота кадров : 25,000 кадров/сек
Цветовое пространство : YUV
Субдискретизация насыщенности : 4:2:0
Битовая глубина : 8 бит
Тип развёртки : Прогрессивная
Метод сжатия : С потерями
Бит/(Пиксели*Кадры) : 0.225
Размер потока : 270 Мбайт (89%)
Библиотека кодирования : XviD 1.2.1 (UTC 2008-12-04)

Аудио
Идентификатор : 1
Формат : AC-3
Формат/Информация : Audio Coding 3
Коммерческое название : Dolby Digital
Идентификатор кодека : 2000
Продолжительность : 23 м. 18 с.
Вид битрейта : Постоянный
Битрейт : 192 Кбит/сек
Каналы : 2 канала
Channel layout : L R
Частота : 48,0 КГц
Частота кадров : 31,250 кадров/сек (1536 SPF)
Битовая глубина : 16 бит
Метод сжатия : С потерями
Размер потока : 32,0 Мбайт (11%)
Выравнивание : Разделение по промежуткам
Продолжительность промежутка : 40 мс. (1,00 видеокадр)
Время предзагрузки промежутка : 500 мс.
ServiceKind/String : Complete Main
Скриншоты:


Все одноименные релизы в Клубе

Смотреть Online

http://moonwalk.cc/serial/e87ed709cc27547d2e261a9c0be88874/iframe
Детали торрента:
Название:Улетный экипаж (2018) WEB-DLRip (сезон 2, серии 1-21 из 21)
Дата добавления:10 Дек 2018 22:50:04
Размер:6,45 GB
Раздают:40
Качают:20
Форум:Отечественные сериалы

All rights reserved © 2015-2018